[ Сегодня идет свободное скачивание без начисления Download ]


Статистика раздачи
Нет
 
   
 
 
 
-Полет Земли / Earth Flight (2011) [720p] BDRip-6 серий из 6- Русское название: Полет Земли
Оригинальное название: Earth Flight
Режиссер / Телекомпания: BBC
Год выпуска: 2011
Жанр: Документальный
Описание:
Документальный сериал о том, какой предстаёт нашему взору Земля с высоты птичьего полёта, глазами самих птиц, в грандиозном природном калейдоскопе. Потрясающие виды пяти континентов, поданные в новом ракурсе в этом шести серийном фильме, благодаря которому можно присоединиться к стае лапландских гусей, журавлей, фламинго, пеликанов, орлов и прочей птичьей братии. Для создания фильма были использованы последние технологии воздушных съёмок, чтобы мы смогли в мельчайших деталях увидеть всю мощь природы. Взору зрителя откроется ракурс видимый лишь глазу летящего высоко в небе журавля, который проносится над каналами Венеции или пережить плавное скольжение вместе с белоголовым орланом на фоне Великого Каньона. Фильм «Земля с птичьего полёта» откроет перед вами секреты того что таит в себе голубизна неба, показывая мир в совершенно новой и захватывающей перспективе. Комментирует фильм Давид Теннант.- -Продолжительность: 6 х ~00:59:00
Перевод: Одноголосый закадровый, профессиональный
Формат: МКV
Видеокодек: MPEG-4 AVC/H.264
Битрейт видео: ~7537 kb/s
Размер кадра: 1280 x 720
Качество видео: BDRip

Аудио# 1: Русский: DTS, 2.0 ch, ~755 kb/s |Одноголосый закадровый, . Сербин|
Аудио# 2: Английский: DTS, 2.0 ch, ~755 kb/s
Субтитры: Английские
-

MediaInfo:

Формат : Matroska
Версия формата : Version 2
Размер файла : 3,82 Гбайт
Продолжительность : 59 м.
Общий поток : 9229 Кбит/сек
Название фильма : Earth Flight EP01 North America
Дата кодирования : UTC 2012-05-27 18:05:52
Программа кодирования : mkvmerge v3.4.0 ('Rapunzel') built on May 15 2010 09:38:20
Библиотека кодирования : libebml v0.8.0 + libmatroska v0.9.0
Видео
Идентификатор : 1
Формат : AVC
Формат/Информация : Advanced Video Codec
Профиль формата : [email protected]
Параметр CABAC формата : Да
Параметр ReFrames формата : 8 кадров
Идентификатор кодека : V_MPEG4/ISO/AVC
Продолжительность : 59 м.
Битрейт : 7537 Кбит/сек
Ширина : 1280 пикселей
Высота : 720 пикселей
Соотношение сторон : 16:9
Частота кадров : 25,000 кадров/сек
Цветовое пространство : YUV
Субдискретизация насыщенности : 4:2:0
Битовая глубина : 8 бит
Тип развёртки : Прогрессивная
Бит/(Пиксели*Кадры) : 0.327
Размер потока : 3,12 Гбайт (82%)
Заголовок : Release for HDCLUB
Библиотека кодирования : x264 core 124 r2197 69a0443
Настройки программы : cabac=1 / ref=8 / deblock=1:-3:-3 / analyse=0x3:0x113 / me=umh / subme=10 / psy=1 / psy_rd=1.00:0.00 / mixed_ref=1 / me_range=32 / chroma_me=1 / trellis=2 / 8x8dct=1 / cqm=0 / deadzone=21,11 / fast_pskip=0 / chroma_qp_offset=-2 / threads=18 / sliced_threads=0 / nr=0 / decimate=0 / interlaced=0 / bluray_compat=0 / constrained_intra=0 / bframes=8 / b_pyramid=2 / b_adapt=2 / b_bias=0 / direct=3 / weightb=1 / open_gop=0 / weightp=2 / keyint=250 / keyint_min=23 / scenecut=40 / intra_refresh=0 / rc_lookahead=60 / rc=crf / mbtree=0 / crf=18.5 / qcomp=0.60 / qpmin=10 / qpmax=51 / qpstep=4 / vbv_maxrate=50000 / vbv_bufsize=62500 / crf_max=0.0 / nal_hrd=none / ip_ratio=1.40 / pb_ratio=1.30 / aq=1:0.80
Язык : English
Default : Нет
Forced : Нет
Коэффициенты матрицы : BT.709-5, BT.1361, IEC 61966-2-4 709, SMPTE RP177
Аудио #1
Идентификатор : 2
Формат : DTS
Формат/Информация : Digital Theater Systems
Идентификатор кодека : A_DTS
Продолжительность : 59 м.
Вид битрейта : Постоянный
Битрейт : 755 Кбит/сек
Каналы : 2 канала
Расположение каналов : Front: L R
Частота : 48,0 КГц
Битовая глубина : 16 бит
Метод сжатия : С потерями
Размер потока : 320 Мбайт (8%)
Заголовок : DTS 2.0 @ 768 kbps - Одноголосый закадровый, Ю.Сербин
Язык : Russian
Default : Да
Forced : Нет
Аудио #2
Идентификатор : 3
Формат : DTS
Формат/Информация : Digital Theater Systems
Идентификатор кодека : A_DTS
Продолжительность : 59 м.
Вид битрейта : Постоянный
Битрейт : 755 Кбит/сек
Каналы : 2 канала
Расположение каналов : Front: L R
Частота : 48,0 КГц
Битовая глубина : 16 бит
Метод сжатия : С потерями
Размер потока : 320 Мбайт (8%)
Заголовок : DTS 2.0 @ 768 kbps
Язык : English
Default : Нет
Forced : Нет
Текст
Идентификатор : 4
Формат : UTF-8
Идентификатор кодека : S_TEXT/UTF8
Идентификатор кодека/Информация : UTF-8 Plain Text
Язык : English
Default : Нет
Forced : Нет
Меню
00:00:00.000 : en:00:00:00.000
00:02:03.000 : en:00:02:03.000
00:16:06.640 : en:00:16:06.640
00:31:09.760 : en:00:31:09.760
00:44:36.160 : en:00:44:36.160
00:58:31.800 : en:00:58:31.800

Список серий:


01. Северная Америка / North America

В Южной части Северной Америки, в Мексиканском заливе наступила весна. Стаи белых гусей скоро отправятся в далекое путешествие через континент. В нем примут участие многие миллионы птиц. Перед отлетом отдельные группы птиц сливается с тысячами других гусей, готовых отправиться на север. Одна стая состоит из сотен таких групп. Это грандиозное сборище не может остаться незамеченным.
02. Африка / Africa
Эта история начинается над самой южной оконечностью Африки. Пролетая над Столовой горой возле Кейптауна, сложно понять, что там колышется в открытом море. Над океаном происходит великое воссоединение. Важный секрет известен птице Олуше. Это род крупных морских птиц отряда пеликанообразных. Они свободно парят над океаном и добывают рыбу и кальмаров, ныряя в воду с высоты 10-100 метров на глубину до 25 метров.
03. Европе / Europe
В этой серии мы проследим за судьбой аистов, которые пытаются достичь территории, где проходит их размножение. Путешествуя вместе с птицами, мы узнаем немало интересного о животном мире Европы. И увидим такое, чего мы еще никогда не видели.
04. Южная Америка / South America
Вслед за попугаями ара мы отправимся в необыкновенное путешествие, чтобы раскрыть тайны южноамериканского континента.

05. Азия и Австралия / Asia and Australia

Мы отправляемся в путешествие по Азии и Австралии, чтобы увидеть эти континенты глазами птиц.

06. Новые горизонты / Flying High

В этой серии мы посмотрим на тесные отношения между птицами и людьми, которые дали возможность нашей программе расправить крылья и увидеть мир с высоты птичьего полета.
Мы отправляемся в путешествие по Азии и Австралии, чтобы увидеть эти континенты глазами птиц.
Скриншоты:

[Цитировать]



Показать сообщения:    

Текущее время: 04-Дек 21:26

Часовой пояс: UTC + 3


Вы не можете начинать темы
Вы не можете отвечать на сообщения
Вы не можете редактировать свои сообщения
Вы не можете удалять свои сообщения
Вы не можете голосовать в опросах
Вы не можете прикреплять файлы к сообщениям
Вы не можете скачивать файлы

!ВНИМАНИЕ!
Сайт не предоставляет электронные версии произведений, а занимается лишь коллекционированием и каталогизацией ссылок, присылаемых и публикуемых на форуме нашими читателями. Если вы являетесь правообладателем какого-либо представленного материала и не желаете, чтобы ссылка на него находилась в нашем каталоге, свяжитесь с нами, и мы незамедлительно удалим ее. Файлы для обмена на трекере предоставлены пользователями сайта, и администрация не несет ответственности за их содержание. Просьба не заливать файлы, защищенные авторскими правами, а также файлы нелегального содержания!