[ Сегодня идет свободное скачивание без начисления Download ]


Статистика раздачи
Нет
 
   
 
Top  
 
 
-BBC: Космос. Руководство для начинающих. Жизнь в космосе / The Cosmos. A Beginner's Guide. Life in the Cosmos (2007) SATRip [серия 1]- Русское название: BBC: Космос. Руководство для начинающих. Жизнь в космосе
Оригинальное название: The Cosmos. A Beginner's Guide. Life in the Cosmos
Режиссер / Телекомпания: Пол Бедер, Лоис Сэй, BBC, Screenhouse Production
Год выпуска: 2007
Жанр: Документальный
Описание:
Это история обо всем - от первой микросекунды нашей Вселенной до захватывающего будущего. Адам Харт-Дэвис, Джанет Самнер и Мэгги Адерайн путешествуют по нашей планете чтобы познакомиться с последними научными достижениями в области изучения космического пространства.
01. Жизнь в космосе / Life in the Cosmos
Впечатляющая сеть телескопов в горах Северной Калифорнии находится на переднем крае поисков разумной жизни в космосе. Круглые сутки в течение всего года они сканируют небо в надежде перехватить послания внеземных цивилизаций, человеческий гений постепенно открывает нам космос, но самый важный из всех вопросов, встающих перед нами остается пока без ответа. Неужели мы одни во вселенной и нет другой жизни? Ведущие фильма встретятся с охотниками за инопланетянами. Они всю жизнь искали следы жизни в космосе. Некоторые из них ищу примитивные формы жизни буквально под носом, другие ищут тех, с кем можно было бы поговорить.
Участники: Адам Харт-Девис, Джанет Самнер, Мегги Адерайн, Верена Кейн, Дон Николсон, Бен Алланах, Карлос Френк, Пиппа Уэллс, Энди Кирк
Продолжительность: 00:25:08
Перевод: Двуголосый закадровый, профессиональный
Видеокодек: Xvid
Битрейт видео: ~1500 Kbps
Размер кадра: 704x384
Качество видео: SATRip
Аудиокодек: MP3, 2 ch.
Битрейт аудио: 128 kbps

MediaInfo:

Формат : AVI
Формат/Информация : Audio Video Interleave
Размер файла : 295 Мбайт
Продолжительность : 25 м.
Общий поток : 1639 Кбит/сек
Программа кодирования : VirtualDubMod 1.5.10.3 | www.virtualdub-fr.org || (build 2550/release)
Библиотека кодирования : VirtualDub build 35390/release
Видео
Идентификатор : 0
Формат : MPEG-4 Visual
Профиль формата : Advanced Simple@L5
Параметр BVOP формата : 2
Параметр QPel формата : Нет
Параметр GMC формата : Без точки перехода
Параметр матрицы формата : Default (H.263)
Режим смешивания : Сжатый битовый поток
Идентификатор кодека : XVID
Идентификатор кодека/Подсказка : XviD
Продолжительность : 25 м.
Битрейт : 1501 Кбит/сек
Ширина : 704 пикселя
Высота : 384 пикселя
Соотношение сторон : 1,85:1
Частота кадров : 25,000 кадров/сек
Цветовое пространство : YUV
Субдискретизация насыщенности : 4:2:0
Битовая глубина : 8 бит
Тип развёртки : Прогрессивная
Метод сжатия : С потерями
Бит/(Пиксели*Кадры) : 0.222
Размер потока : 270 Мбайт (92%)
Библиотека кодирования : XviD 64
Аудио
Идентификатор : 1
Формат : MPEG Audio
Версия формата : Version 1
Профиль формата : Layer 3
Идентификатор кодека : 55
Идентификатор кодека/Подсказка : MP3
Продолжительность : 25 м.
Вид битрейта : Постоянный
Битрейт : 128 Кбит/сек
Каналы : 2 канала
Частота : 48,0 КГц
Метод сжатия : С потерями
Размер потока : 23,0 Мбайт (8%)
Выравнивание : Соединение по промежуткам
Продолжительность промежутка : 40 мс. (1,00 видеокадр)
Время предзагрузки промежутка : 504 мс.
Библиотека кодирования : LAME3.99r
Настройки программы : -m s -V 4 -q 0 -lowpass 17 -b 128
01. Жизнь в космосе
02. Как возникла Вселенная
03. Наблюдая Вселенную
04. Исследование космоса
Скриншоты:

[Цитировать]



Показать сообщения:    

Текущее время: 10-Дек 11:45

Часовой пояс: UTC + 3


Вы не можете начинать темы
Вы не можете отвечать на сообщения
Вы не можете редактировать свои сообщения
Вы не можете удалять свои сообщения
Вы не можете голосовать в опросах
Вы не можете прикреплять файлы к сообщениям
Вы не можете скачивать файлы

!ВНИМАНИЕ!
Сайт не предоставляет электронные версии произведений, а занимается лишь коллекционированием и каталогизацией ссылок, присылаемых и публикуемых на форуме нашими читателями. Если вы являетесь правообладателем какого-либо представленного материала и не желаете, чтобы ссылка на него находилась в нашем каталоге, свяжитесь с нами, и мы незамедлительно удалим ее. Файлы для обмена на трекере предоставлены пользователями сайта, и администрация не несет ответственности за их содержание. Просьба не заливать файлы, защищенные авторскими правами, а также файлы нелегального содержания!