[ Сегодня идет свободное скачивание без начисления Download ]


Статистика раздачи
Нет
 
   
 
Top  
 
 
-BBC: Орбита: Необыкновенное путешествие планеты Земля. Траектория движения Земли / Orbit earth`s extraordinary journey. Pathway (2012) SATRip [часть 1]- Русское название: BBC: Орбита: Необыкновенное путешествие планеты Земля. Траектория движения Земли
Оригинальное название: Orbit earth`s extraordinary journey. Pathway
Режиссер / Телекомпания: Бен Финни
Год выпуска: 2012
Жанр: Документальный
Описание:
Мы мчимся вокруг Солнца со скоростью около ста тысяч километров в час и в течение ближайшего года пролетим около девятисот миллионов километров, вернувшись ровно туда, откуда начали. Три параметра орбиты нашей планеты, ее вращение вокруг своей оси, и наклон этой оси сформировали и продолжают формировать облик земли, а значит, и определять нашу жизнь каждую минуту, каждого дня, каждого года. С момента своего рождения наша земля преодолела этот маршрут уже свыше четырёх миллиардов раз и все мимо чего пролетает земля путешествуя вокруг солнца является нашей окружающей средой в ее самом экстремальном виде, это опасный путь где солнечное излучение и смертельный холод сопровождают атаки комет и астероидов, но несмотря на эти опасности орбита земли расположена в абсолютно правильном месте, правильном для жизни.
01. Траектория движения Земли / Pathway
В течение большей части истории человечества сама концепция движения нашей планеты вызывала большие сомнения. Считалось, что Земля расположена в центре мироздания, в сё остальное движется вокруг неё. И когда выяснилось, что, на самом деле, именно Земля вращается вокруг Солнца, ответы на многие таинственные вопросы были найдены...
Продолжительность: 00:48:12
Перевод: Двуголосый закадровый, профессиональный
Видеокодек: DivX 4/5/6
Битрейт видео: ~1600 kbps
Размер кадра: 704х400
Качество видео: SATRip
Аудиокодек: MP3, 2 ch.
Битрейт аудио: 128 kbps

MediaInfo:

Формат : AVI
Формат/Информация : Audio Video Interleave
Размер файла : 601 Мбайт
Продолжительность : 48 м.
Общий поток : 1744 Кбит/сек
Видео
Идентификатор : 0
Формат : MPEG-4 Visual
Профиль формата : Simple@L3
Параметр BVOP формата : Нет
Параметр QPel формата : Нет
Параметр GMC формата : Без точки перехода
Параметр матрицы формата : Default (H.263)
Идентификатор кодека : DX50
Идентификатор кодека/Подсказка : DivX 5
Продолжительность : 48 м.
Битрейт : 1599 Кбит/сек
Ширина : 704 пикс.
Высота : 400 пикс.
Соотношение сторон : 16:9
Частота кадров : 25,000 кадр/сек
Цветовое пространство : YUV
Подвыборка цветности : 4:2:0
Битовая глубина : 8 бит
Тип развёртки : Прогрессивная
Метод сжатия : С потерями
Бит/(Пиксели*Кадры) : 0.227
Размер потока : 551 Мбайт (92%)
Библиотека кодирования : XviD 1.2.1 (UTC 2008-12-04)
Аудио
Идентификатор : 1
Формат : MPEG Audio
Версия формата : Version 1
Профиль формата : Layer 3
Режим : Joint stereo
Расширение режима : MS Stereo
Идентификатор кодека : 55
Идентификатор кодека/Подсказка : MP3
Продолжительность : 48 м.
Вид битрейта : Постоянный
Битрейт : 128 Кбит/сек
Канал(ы) : 2 канала(ов)
Частота : 48,0 КГц
Метод сжатия : С потерями
Размер потока : 44,1 Мбайт (7%)
Выравнивание : Соединение по промежуткам
Продолжительность промежутка : 24 мс. (0,60 видеокадр)
Библиотека кодирования : LAME3.98.2
01. Траектория движения Земли
02. Вращение Земли
03. Наклон земной оси
Скриншоты:

[Цитировать]



Показать сообщения:    

Текущее время: 09-Дек 16:34

Часовой пояс: UTC + 3


Вы не можете начинать темы
Вы не можете отвечать на сообщения
Вы не можете редактировать свои сообщения
Вы не можете удалять свои сообщения
Вы не можете голосовать в опросах
Вы не можете прикреплять файлы к сообщениям
Вы не можете скачивать файлы

!ВНИМАНИЕ!
Сайт не предоставляет электронные версии произведений, а занимается лишь коллекционированием и каталогизацией ссылок, присылаемых и публикуемых на форуме нашими читателями. Если вы являетесь правообладателем какого-либо представленного материала и не желаете, чтобы ссылка на него находилась в нашем каталоге, свяжитесь с нами, и мы незамедлительно удалим ее. Файлы для обмена на трекере предоставлены пользователями сайта, и администрация не несет ответственности за их содержание. Просьба не заливать файлы, защищенные авторскими правами, а также файлы нелегального содержания!