[ Today is free to download without increasing Download ]

DL-List and Torrent activity
-Замерзшая планета [7 серий из 7] / Frozen planet (2011) BDRip- Русское название: Замерзшая планета
Оригинальное название: Frozen planet
Режиссер / Телекомпания: Аластер Фовергилл
Год выпуска: 2011
Жанр: Документальный-Описание:
Новый захватывающий 7-ми серийный документальный сериал от BBC и сэра Дэвида Аттенборо о самых отдалённых уголках нашей планеты, о местах, где экстремальные условия отрицают само существование жизни. Однако жизнь здесь не просто существует, она процветает. Приспосабливаясь и изменяясь, приобретая удивительные формы, находя неожиданные способы существования, жизнь еще раз доказывает величие и грандиозность эволюции. Вас ждут потрясающие съемки касаток во льдах, тюленей, пингвинов, полярных птиц и величественных айсбергов. И все это параллельно исследованию о меняющемся климате этих регионов.- -Продолжительность: 7 х ~ 00:58:00 + 1 х 00:21:12-Перевод: Одноголосый закадровый, профессиональный-Видеокодек: Xvid
Битрейт видео: ~ 1695 kb/s
Размер кадра: 704x400
Качество видео: BDRip
Аудиокодек: AC3
Битрейт аудио: 448 kbps (8 серия - AC3, 2Ch, 48kHz, 384Kbps)


C:\BBC.Замёрзшая планета
Complete name : C:\BBC.Замёрзшая планета\1.На краях Земли.avi
Format : AVI
Format/Info : Audio Video Interleave
File size : 893 MiB
Duration : 58mn 33s
Overall bit rate : 2 133 Kbps
Writing application : VirtualDubMod | www.virtualdub-fr.org || (build 2550/release)
Writing library : VirtualDubMod build 2550/release
Video #0
ID : 0
Format : MPEG-4 Visual
Format profile : Advanced Simple@L5
Format settings, BVOP : 2
Format settings, QPel : No
Format settings, GMC : No warppoints
Format settings, Matrix : Default (MPEG)
Codec ID : XVID
Codec ID/Hint : XviD
Duration : 58mn 33s
Bit rate : 1 675 Kbps
Width : 704 pixels
Height : 400 pixels
Display aspect ratio : 16:9
Frame rate : 25.000 fps
Color space : YUV
Chroma subsampling : 4:2:0
Bit depth : 8 bits
Scan type : Progressive
Compression mode : Lossy
Bits/(Pixel*Frame) : 0.238
Stream size : 702 MiB (79%)
Writing library : XviD 64
Audio #1
ID : 1
Format : AC-3
Format/Info : Audio Coding 3
Mode extension : CM (complete main)
Codec ID : 2000
Duration : 58mn 33s
Bit rate mode : Constant
Bit rate : 448 Kbps
Channel(s) : 6 channels
Channel positions : Front: L C R, Side: L R, LFE
Sampling rate : 48.0 KHz
Bit depth : 16 bits
Compression mode : Lossy
Stream size : 188 MiB (21%)
Alignment : Split accross interleaves
Interleave, duration : 40 ms (1.00 video frame)
Interleave, preload duration : 500 ms

Список эпизодов:

1. На краях Земли / To the Ends of the Earth
2. Весна / Spring
3. Лето / Summer
4. Осень / Autumn
5. Зима / Winter
6. Последний рубеж / The last frontier
7. На тонком льду / On thin ice
8. Наука на краю Земли / Science at the end of the Earth


Display posts:    

Current time is: 26-Oct 08:48

All times are UTC + 3

You cannot post new topics in this forum
You cannot reply to topics in this forum
You cannot edit your posts in this forum
You cannot delete your posts in this forum
You cannot vote in polls in this forum
You cannot attach files in this forum
You cannot download files in this forum

The site does not give electronic versions of products, and is engaged only in a collecting and cataloguing of the references sent and published at a forum by our readers. If you are the legal owner of any submitted material and do not wish that the reference to it was in our catalogue, contact us and we shall immediately remove her. Files for an exchange on tracker are given by users of a site, and the administration does not bear the responsibility for their maintenance. The request to not fill in the files protected by copyrights, and also files of the illegal maintenance!