[ Сегодня идет свободное скачивание без начисления Download ]


Статистика раздачи
Нет
 
   
 
 
 
-BBC: Невидимые миры / Richard Hammond's Invisible Worlds (2010) BDRip- Русское название: BBC: Невидимые миры
Оригинальное название: Richard Hammond's Invisible Worlds
Режиссер / Телекомпания: Дэн Клифтон, Гэвин Максвелл, Мэтью Вортман / BBC Television Centre, Discovery Channel
Год выпуска: 2010
Описание:
Ричард Хаммонд уводит нас в невидимые человеческому глазу миры. Мы можем увидеть только те предметы, которые отражают или излучают свет с длиной волны в очень узком диапазоне (примерно от 750 до 400 нанометров) это около 0,00000000001% всего спектра электромагнитного излучения.
Что же происходит за его пределами?
Технологии последних лет позволяют приоткрыть занавес и заглянуть в неизвестное. Сверхвысокие скорости, сверхмалые размеры, сверхбыстрые события - обо всём этом рассказывается в 3-серийном документальном фильме "BBC: Невидимые Миры".-[imdb]tt1623136[/imdb] [kp]574276[/kp]-Участники: Ричард Хаммонд, Мэтью Г. МакХарг, Том Уорнер, Трэйси Альбрехт, Алан Брэдли, Эрин Дженсен, Дуан Вилбур, Джек Фокс, Дани Кистле, Эдгар Д. Митчел ...
Продолжительность: 3 x ~ 00:59:00
Перевод: Двуголосый закадровый, профессиональный [студия "Кипарис"]
Язык субтитров: Русские
Вид субтитров: Вшитые
Видеокодек: MPEG-4 AVC/H.264
Битрейт видео: ~15000 kbps
Размер кадра: 1920x1080
Качество видео: BDRip
Аудио #1: Русский, DTS 2.0, 1510 kbps [Двуголосый закадровый, профессиональный [студия "Кипарис"]]
Аудио #2: Английский, DTS 2.0, 1510 kbps [Оригинал]

Все раздачи сериала на трекере

Mediainfo (тех. параметры всех серий одинаковы):

Общее
Уникальный идентификатор                 : 250502320669624973428660922534148240023 (0xBC74FDF7182F59ED8D84E164C144F297)
Полное имя                               : G:\фильмы\Richard Hammond's Invisible Worlds BDRip.1080p.NNM-Club.ru\Off the Scale.mkv
Формат                                   : Matroska
Версия формата                           : Version 2
Размер файла                             : 7,24 Гбайт
Продолжительность                        : 59 м.
Режим общего битрейта                    : Переменный
Общий поток                              : 17,5 Мбит/сек
Дата кодирования                         : UTC 2012-09-11 04:21:17
Программа кодирования                    : mkvmerge v5.8.0 ('No Sleep / Pillow') built on Sep  2 2012 15:37:04
Библиотека кодирования                   : libebml v1.2.3 + libmatroska v1.3.0
Видео
Идентификатор                            : 1
Формат                                   : AVC
Формат/Информация                        : Advanced Video Codec
Профиль формата                          : [url=mailto:High@L4.1]High@L4.1[/url]
Параметр CABAC формата                   : Да
Параметр ReFrames формата                : 3 кадра
Режим смешивания                         : Header stripping
Идентификатор кодека                     : V_MPEG4/ISO/AVC
Продолжительность                        : 59 м.
Вид битрейта                             : Переменный
Битрейт                                  : 14,5 Мбит/сек
Максимальный битрейт                     : 17,5 Мбит/сек
Ширина                                   : 1920 пикселей
Высота                                   : 1080 пикселей
Соотношение сторон                       : 16:9
Режим частоты кадров                     : Постоянный
Частота кадров                           : 25,000 кадров/сек
Цветовое пространство                    : YUV
Субдискретизация насыщенности            : 4:2:0
Битовая глубина                          : 8 бит
Тип развёртки                            : Прогрессивная
Бит/(Пиксели*Кадры)                      : 0.280
Размер потока                            : 5,84 Гбайт (81%)
Библиотека кодирования                   : x264 core 125 r2200 999b753
Настройки программы                      : cabac=1 / ref=4 / deblock=1:-2:-2 / analyse=0x3:0x113 / me=umh / subme=10 / psy=1 / psy_rd=1.00:0.00 / mixed_ref=1 / me_range=32 / chroma_me=1 / trellis=2 / 8x8dct=1 / cqm=0 / deadzone=21,11 / fast_pskip=1 / chroma_qp_offset=-2 / threads=6 / lookahead_threads=1 / sliced_threads=0 / slices=4 / nr=0 / decimate=1 / interlaced=0 / bluray_compat=1 / constrained_intra=0 / bframes=3 / b_pyramid=1 / b_adapt=2 / b_bias=0 / direct=3 / weightb=1 / open_gop=1 / weightp=1 / keyint=250 / keyint_min=1 / scenecut=40 / intra_refresh=0 / rc_lookahead=60 / rc=2pass / mbtree=1 / bitrate=14500 / ratetol=1.0 / qcomp=0.60 / qpmin=0 / qpmax=69 / qpstep=4 / cplxblur=20.0 / qblur=0.5 / vbv_maxrate=17500 / vbv_bufsize=14500 / nal_hrd=vbr / ip_ratio=1.40 / aq=1:1.00
Язык                                     : English
Default                                  : Да
Forced                                   : Нет
Аудио #1
Идентификатор                            : 2
Формат                                   : DTS
Формат/Информация                        : Digital Theater Systems
Режим смешивания                         : Header stripping
Идентификатор кодека                     : A_DTS
Продолжительность                        : 59 м.
Вид битрейта                             : Постоянный
Битрейт                                  : 1510 Кбит/сек
Каналы                                   : 2 канала
Расположение каналов                     : Front: L R
Частота                                  : 48,0 КГц
Битовая глубина                          : 16 бит
Метод сжатия                             : С потерями
Размер потока                            : 641 Мбайт (9%)
Заголовок                                : Двуголосый закадровый, профессиональный, студия "Кипарис"
Язык                                     : Russian
Default                                  : Да
Forced                                   : Да
Аудио #2
Идентификатор                            : 3
Формат                                   : DTS
Формат/Информация                        : Digital Theater Systems
Режим смешивания                         : Header stripping
Идентификатор кодека                     : A_DTS
Продолжительность                        : 59 м.
Вид битрейта                             : Постоянный
Битрейт                                  : 1510 Кбит/сек
Каналы                                   : 2 канала
Расположение каналов                     : Front: L R
Частота                                  : 48,0 КГц
Битовая глубина                          : 16 бит
Метод сжатия                             : С потерями
Размер потока                            : 641 Мбайт (9%)
Язык                                     : English
Default                                  : Нет
Forced                                   : Нет
Текст
Идентификатор                            : 4
Формат                                   : PGS
Режим смешивания                         : zlib
Идентификатор кодека                     : S_HDMV/PGS
Идентификатор кодека/Информация          : The same subtitle format used on BDs/HD-DVDs
Язык                                     : Russian
Default                                  : Нет
Forced                                   : Нет
Меню
00:00:00.000                             : :Chapter 01
00:07:52.040                             : :Chapter 02
00:14:58.400                             : :Chapter 03
00:26:41.400                             : :Chapter 04
00:35:39.880                             : :Chapter 05
00:47:49.640                             : :Chapter 06
00:59:20.760                             : :Chapter 07

Список серий:

1. Пределы скорости / Speed Limits: Мир полон вещей, которые слишком быстры, чтобы мы их заметили. Сегодня мы имеем возможность "растягивать" время, проникая в невидимое и раскрывая захватывающие тайны нашей планеты.
2. Вне поля зрения / Out of Sight: Человеку под силу увидеть лишь крошечный фрагмент реальности, которая в действительности выглядит гораздо шире. В фильме зрители смогут познакомиться с ультрафиолетовыми и инфракрасными лучами, силовыми полями, микроволнами и их воздействием на окружающий нас мир.
3. Вне масштаба / Off the Scale: Рядом с нами постоянно находится целый мир вещей, которые слишком малы для того, чтобы мы их могли заметить. Но, несмотря на свои размеры, он настолько важен, что оказывает существенное влияние на всю нашу планету.
Скриншоты:

[Цитировать]



Показать сообщения:    

Текущее время: 11-Дек 09:06

Часовой пояс: UTC + 3


Вы не можете начинать темы
Вы не можете отвечать на сообщения
Вы не можете редактировать свои сообщения
Вы не можете удалять свои сообщения
Вы не можете голосовать в опросах
Вы не можете прикреплять файлы к сообщениям
Вы не можете скачивать файлы

!ВНИМАНИЕ!
Сайт не предоставляет электронные версии произведений, а занимается лишь коллекционированием и каталогизацией ссылок, присылаемых и публикуемых на форуме нашими читателями. Если вы являетесь правообладателем какого-либо представленного материала и не желаете, чтобы ссылка на него находилась в нашем каталоге, свяжитесь с нами, и мы незамедлительно удалим ее. Файлы для обмена на трекере предоставлены пользователями сайта, и администрация не несет ответственности за их содержание. Просьба не заливать файлы, защищенные авторскими правами, а также файлы нелегального содержания!