[ Сегодня идет свободное скачивание без начисления Download ]


Статистика раздачи
Нет
 
   
 
Top  
 
 
Адаптация / Запахи Детства
Жанр: Post-Punk
Страна-производитель диска: Россия
Год издания: 2012
Издатель (лейбл): Выргород
Номер по каталогу: 090
Страна: Россия-Казахстан
Аудиокодек: FLAC (*.flac)
Тип рипа: image+.cue
Битрейт аудио: lossless
Продолжительность: 53:01
Источник (релизер): собственный диск
Наличие сканов в содержимом раздачи: да
Треклист:
1. Уходим в леса
2. Марихуана
3. Тотальный оргазм
4. Весенний дождик
5. Я люблю тебя жизнь
6. Шош?аны? еті
7. Запахи детства
8. На деревню дедушке
9. Не могу быть анархистом сейчас
10. Непрерывные медитации
11. Ненавижу тинэйджеров
12. Патриотическая
13. Сушняки
14. Уходим в леса [Bonus-track]
15. Марихуана [Bonus-track]
16. Чтобы не было больно [Bonus-track]
17. Дебилизация [Bonus-track]
18. Ананас [Bonus-track]

Лог создания рипа

Exact Audio Copy V1.0 beta 3 from 29. August 2011
Отчёт EAC об извлечении, выполненном 21. мая 2012, 1:16
Адаптация / Запахи Детства
Дисковод: TSSTcorpCDDVDW SH-S223C Adapter: 1 ID: 1
Режим чтения : ДостоверностьИспользование точного потока : ДаОтключение кэша аудио : ДаИспользование указателей C2 : Нет
Коррекция смещения при чтении : 697Способность читать области Lead-in и Lead-out : НетЗаполнение пропущенных сэмплов тишиной : ДаУдаление блоков с тишиной в начале и конце : НетПри вычислениях CRC использовались нулевые сэмплы : ДаИнтерфейс : Встроенный Win32-интерфейс для Win NT/2000
Выходной формат : Внутренние WAV-операцииФормат сэмплов : 44.100 Гц; 16 бит; стерео
TOC извлечённого CD
Трек | Старт | Длительность | Начальный сектор | Конечный сектор --------------------------------------------------------------------- 1 | 0:00.00 | 2:44.35 | 0 | 12334 2 | 2:44.35 | 2:59.07 | 12335 | 25766 3 | 5:43.42 | 2:35.04 | 25767 | 37395 4 | 8:18.46 | 3:48.15 | 37396 | 54510 5 | 12:06.61 | 4:20.70 | 54511 | 74080 6 | 16:27.56 | 1:41.38 | 74081 | 81693 7 | 18:09.19 | 2:08.51 | 81694 | 91344 8 | 20:17.70 | 1:59.44 | 91345 | 100313 9 | 22:17.39 | 2:10.08 | 100314 | 110071 10 | 24:27.47 | 2:29.37 | 110072 | 121283 11 | 26:57.09 | 2:57.31 | 121284 | 134589 12 | 29:54.40 | 2:05.37 | 134590 | 144001 13 | 32:00.02 | 4:32.71 | 144002 | 164472 14 | 36:32.73 | 4:14.07 | 164473 | 183529 15 | 40:47.05 | 2:59.32 | 183530 | 196986 16 | 43:46.37 | 3:49.56 | 196987 | 214217 17 | 47:36.18 | 2:41.05 | 214218 | 226297 18 | 50:17.23 | 2:44.38 | 226298 | 238635
Характеристики диапазона извлечения и сообщения об ошибках
Выбранный диапазон
Имя файла C:\Users\Рокер\Desktop\Адаптация - Запахи Детства.wav
Пиковый уровень 100.0 % Скорость извлечения 3.3 X Качество диапазона 100.0 % CRC теста 3BDF14CD CRC копии 3BDF14CD Копирование... OK
Ошибок не произошло
Конец отчёта

Содержание индексной карты (.CUE)

REM GENRE Post-PunkREM DATE 1991REM DISCID 170C6D12REM COMMENT "ExactAudioCopy v1.0b3"PERFORMER "Адаптация"TITLE "Запахи Детства"FILE "Адаптация - Запахи Детства.flac" WAVE TRACK 01 AUDIO TITLE "Уходим в леса" PERFORMER "Адаптация" INDEX 01 00:00:00 TRACK 02 AUDIO TITLE "Марихуана" PERFORMER "Адаптация" INDEX 00 02:42:36 INDEX 01 02:44:35 TRACK 03 AUDIO TITLE "Тотальный оргазм" PERFORMER "Адаптация" INDEX 00 05:41:43 INDEX 01 05:43:42 TRACK 04 AUDIO TITLE "Весенний дождик" PERFORMER "Адаптация" INDEX 00 08:16:47 INDEX 01 08:18:46 TRACK 05 AUDIO TITLE "Я люблю тебя жизнь" PERFORMER "Адаптация" INDEX 00 12:04:62 INDEX 01 12:06:61 TRACK 06 AUDIO TITLE "Шош.аны. еті" PERFORMER "Адаптация" INDEX 00 16:25:57 INDEX 01 16:27:56 TRACK 07 AUDIO TITLE "Запахи детства" PERFORMER "Адаптация" INDEX 00 18:07:20 INDEX 01 18:09:19 TRACK 08 AUDIO TITLE "На деревню дедушке" PERFORMER "Адаптация" INDEX 00 20:15:71 INDEX 01 20:17:70 TRACK 09 AUDIO TITLE "Не могу быть анархистом сейчас" PERFORMER "Адаптация" INDEX 00 22:15:40 INDEX 01 22:17:39 TRACK 10 AUDIO TITLE "Непрерывные медитации" PERFORMER "Адаптация" INDEX 00 24:25:48 INDEX 01 24:27:47 TRACK 11 AUDIO TITLE "Ненавижу тинэйджеров" PERFORMER "Адаптация" INDEX 00 26:55:10 INDEX 01 26:57:09 TRACK 12 AUDIO TITLE "Патриотическая" PERFORMER "Адаптация" INDEX 00 29:52:41 INDEX 01 29:54:40 TRACK 13 AUDIO TITLE "Сушняки" PERFORMER "Адаптация" INDEX 00 31:58:03 INDEX 01 32:00:02 TRACK 14 AUDIO TITLE "Уходим в леса (bonus track)" PERFORMER "Адаптация" INDEX 00 36:30:74 INDEX 01 36:32:73 TRACK 15 AUDIO TITLE "Марихуана (bonus track)" PERFORMER "Адаптация" INDEX 00 40:45:06 INDEX 01 40:47:05 TRACK 16 AUDIO TITLE "Чтобы не было больно (bonus track)" PERFORMER "Адаптация" INDEX 00 43:44:38 INDEX 01 43:46:37 TRACK 17 AUDIO TITLE "Дебилизация (bonus track)" PERFORMER "Адаптация" INDEX 00 47:34:19 INDEX 01 47:36:18 TRACK 18 AUDIO TITLE "Ананас (bonus track)" PERFORMER "Адаптация" INDEX 00 50:15:24 INDEX 01 50:17:23

Об исполнителе (группе)

Основатель, бессменный лидер и идейный вдохновитель группы – Ермен «Анти» Ержанов. «Адаптация» образовалась в сложные 90-е годы, в период развала СССР, переоценки ценностей и всеобщего нигилизма. Она продолжила традиции социального протеста, заложенные субкультурой сибирского панка 80-х: «Гражданской обороной» Егора Летова, Янкой Дягилевой, Черным Лукичом (Вадим Кузьмин), а также Александром Башлачёвым.
Как писал журнал-самиздат "КонтрКультУра": "Получаем суровую правду жизни, иначе говоря, - социальную тематику. Поэтому творчество "Адаптации" вызывает неприятие у многих поклонников начищенного до блеска рокапопса и, наоборот, восторг и интерес у всех, кто любит экзистенциальный, "думающий" панк-рок, ничего не имеющий общего с прыгающим, веселым, туповатым панком а-ля "Наив", "Король и шут", "Тараканы" и т.д." Биография исполнителя «Адаптация».
Группа русскоязычная, хотя в репертуаре есть и песни на казахском языке. Ермен Ержанов: «В какой-то момент мне захотелось, чтобы был панк-рок на казахском языке. Мы записали несколько песен в рамках проекта «Бищара Балдар» и во Франции издали пластинку, где помимо песен на русском, есть песни и на казахском. Песни получились разные: в них отражены как этнические, так и политические мотивы. Например, песня «Котакты жеме» – социально-политическая. А «Алдар Косе» – фольклорная. Панк исполняется на самых разных языках, а на казахском нет. Я решил восполнить этот культурный пробел. На казахский язык панк хорошо ложится благодаря фонетике. Но все же я воспитан на русской культуре, мыслю по-русски и считаю его родным языком. Идеи некоторых песен были сформулированы на русском, а потом переложены на казахский. Проект получился удачным, многим нравится, хотя слушатели у нас русскоязычные» Утро нового дня.
"Адаптация" утвердила свой собственный стиль и звучание и за 20 лет существования собрала свою аудиторию, объездив с концертами большую часть бывшего Союза и выступая в Европе... Издан десяток альбомов, есть записи "живые", пиратские, сольники Ержанова, у группы имеется свой сайт, также неофициальный Адаптация.

Об альбоме (сборнике)

Записано на различных квартирах, репетиционных базах, дачах в Актюбинске в период 1993—1995 гг.
Подарочное издание, шестиполосный диджипак, тираж 300 нумерованных экземпляров. Издано в серии "Архив Актюбинского Панк-клуба".
Все песни — Ермен Анти, кроме 12 — Владимир Белканов.
Ермен Анти — вокал, гитара, бас (17, 18);
Саня «Шиза» Шикарев — гитара;
Сергей Щанкин — барабаны;
Виталий «Шебур» Ширко — баян;
Жека «Корней» Корнийко — флейта (13);
Андрюха «Гавр» Малозёмов — бас (13);
Алексей Казаченко — бас (1, 2, 10, 11);
Олег «Мясо» Панченко — гитара (7, 13);
Хамит Фаттахов — бас (7, 9);
Серик Слепой — бас (14-16);
Сергей «Нильс» Карпов — бас (4).

Состав

Ермен Анти — вокал, гитара, бас;
Саня «Шиза» Шикарев — гитара;
Сергей Щанкин — барабаны;
Виталий «Шебур» Ширко — баян;
Жека «Корней» Корнийко — флейта;
Андрюха «Гавр» Малозёмов — бас;
Алексей Казаченко — бас;
Олег «Мясо» Панченко — гитара;
Хамит Фаттахов — бас;
Серик Слепой — бас;
Сергей «Нильс» Карпов — бас.
P.S. файл .*cue вшит в образ flac.

[Цитировать]



Показать сообщения:    

Текущее время: 10-Дек 08:04

Часовой пояс: UTC + 3


Вы не можете начинать темы
Вы не можете отвечать на сообщения
Вы не можете редактировать свои сообщения
Вы не можете удалять свои сообщения
Вы не можете голосовать в опросах
Вы не можете прикреплять файлы к сообщениям
Вы не можете скачивать файлы

!ВНИМАНИЕ!
Сайт не предоставляет электронные версии произведений, а занимается лишь коллекционированием и каталогизацией ссылок, присылаемых и публикуемых на форуме нашими читателями. Если вы являетесь правообладателем какого-либо представленного материала и не желаете, чтобы ссылка на него находилась в нашем каталоге, свяжитесь с нами, и мы незамедлительно удалим ее. Файлы для обмена на трекере предоставлены пользователями сайта, и администрация не несет ответственности за их содержание. Просьба не заливать файлы, защищенные авторскими правами, а также файлы нелегального содержания!