[ Сегодня идет свободное скачивание без начисления Download ]


Статистика раздачи
Нет
 
   
 
Top  
 
 
-Мастер / The Master (2012) BDRip- Русское название: Мастер
Оригинальное название: The Master
Год выпуска: 2012
Производство: Annapurna Pictures / Ghoulardi Film Company [США]
Жанр: Драма
Перевод: Дублированный [лицензия]
Субтитры: Вшитые отключаемые
Язык субтитров: Русский, английский
Режиссер: Пол Томас Андерсон
Актеры: Хоакин Феникс, Филип Сеймур Хоффман, Эми Адамс, Лора Дерн, Джесси Племонс, Эмбир Чилдерс, Рами Малек, Мартин Д. Дью, Кевин Дж. О’Коннор, Патриция МакКормак
Описание фильма:
Демобилизованный моряк с загадочным прошлым не может найти места в послевоенной Америке. Он меняет одну работу за другой, пока случайно не знакомится с харизматичным создателем религиозного культа, известным писателем и философом. К удивлению приверженцев модного учения, их гуру делает агрессивного маргинала своим ближайшим помощником. По мере того как новая вера завоевывает поклонников, бывший бродяга начинает задаваться вопросами о том, во что он верит, и кем является его наставник на самом деле. Но некоторым тайнам лучше оставаться нераскрытыми…
Рецензия от CrazyBaks...
Дата мировой премьеры: 1 сентября 2012
Дата российской премьеры: 14 февраля 2013, «Вольга»
Дата выхода DVD релиза: 14 марта 2013, «Вольга»
Дата выхода Blu-Ray релиза: 14 марта 2013, «Вольга»
Рейтинг R - Детям до 17 лет обязательно присутствие родителей
Возраст 18+ - Зрителям, достигшим 18 лет

Продолжительность: 02:17:30
Качество видео: BDRip [Skazhutin]
Видео: MPEG4_AVC/H.264, 1920x1036, ~13700 kbps, 23.976 fps
Аудио 1: DTS 5.1, 1510 kbps [Русский - дублированный]
Аудио 2: DTS 5.1, 1510 kbps [Английский - оригинал]

MediaInfo...

Полное имя : D:\Мастер-The.Master.(2012).BDRip.[1080p].mkv
Формат : Matroska
Версия формата : Version 2
Размер файла : 16,4 Гбайт
Продолжительность : 2 ч. 17 м.
Общий поток : 17,1 Мбит/сек
Дата кодирования : UTC 2013-03-12 17:26:26
Программа кодирования : mkvmerge v5.7.0 ('The Whirlwind') built on Aug 7 2012 14:11:40
Библиотека кодирования : libebml v1.2.3 + libmatroska v1.3.0
Видео
Идентификатор : 1
Формат : AVC
Формат/Информация : Advanced Video Codec
Профиль формата : [email protected]
Параметр CABAC формата : Да
Параметр ReFrames формата : 4 кадра
Идентификатор кодека : V_MPEG4/ISO/AVC
Битрейт : 13,7 Мбит/сек
Ширина : 1920 пикселей
Высота : 1036 пикселей
Соотношение сторон : 1,85:1
Режим частоты кадров : Переменный
Частота кадров в оригинале : 23,976 кадра/сек
Цветовое пространство : YUV
Субдискретизация насыщенности : 4:2:0
Битовая глубина : 8 бит
Тип развёртки : Прогрессивная
Заголовок : The.Master.2012.1080p.BluRay.DTS.x264-Skazhutin
Библиотека кодирования : x264 core 129 r2245kMod bc13772
Настройки программы : cabac=1 / ref=4 / deblock=1:-3:-3 / analyse=0x3:0x113 / me=umh / subme=11 / psy=1 / fade_compensate=0.00 / psy_rd=1.00:0.00 / mixed_ref=1 / me_range=48 / chroma_me=1 / trellis=2 / 8x8dct=1 / cqm=0 / deadzone=21,11 / fast_pskip=1 / chroma_qp_offset=-2 / threads=12 / lookahead_threads=2 / sliced_threads=0 / nr=0 / decimate=1 / interlaced=0 / bluray_compat=0 / constrained_intra=0 / bframes=11 / b_pyramid=2 / b_adapt=2 / b_bias=0 / direct=3 / weightb=1 / open_gop=0 / weightp=2 / keyint=250 / keyint_min=23 / scenecut=40 / intra_refresh=0 / rc_lookahead=40 / rc=crf / mbtree=0 / crf=17.0000 / qcomp=0.70 / qpmin=0 / qpmax=69 / qpstep=4 / vbv_maxrate=50000 / vbv_bufsize=62500 / crf_max=0.0 / nal_hrd=none / ip_ratio=1.25 / pb_ratio=1.15 / aq=1:0.75
Язык : English
Default : Да
Forced : Нет
Коэффициенты матрицы : BT.709
Аудио #1
Идентификатор : 2
Формат : DTS
Формат/Информация : Digital Theater Systems
Идентификатор кодека : A_DTS
Продолжительность : 2 ч. 17 м.
Вид битрейта : Постоянный
Битрейт : 1510 Кбит/сек
Каналы : 6 каналов
Расположение каналов : Front: L C R, Side: L R, LFE
Частота : 48,0 КГц
Битовая глубина : 24 бит
Метод сжатия : С потерями
Размер потока : 1,45 Гбайт (9%)
Язык : Russian
Default : Да
Forced : Нет
Аудио #2
Идентификатор : 3
Формат : DTS
Формат/Информация : Digital Theater Systems
Идентификатор кодека : A_DTS
Продолжительность : 2 ч. 17 м.
Вид битрейта : Постоянный
Битрейт : 1510 Кбит/сек
Каналы : 6 каналов
Расположение каналов : Front: L C R, Side: L R, LFE
Частота : 48,0 КГц
Битовая глубина : 24 бит
Метод сжатия : С потерями
Размер потока : 1,45 Гбайт (9%)
Язык : English
Default : Нет
Forced : Нет
Текст #1
Идентификатор : 4
Формат : UTF-8
Идентификатор кодека : S_TEXT/UTF8
Идентификатор кодека/Информация : UTF-8 Plain Text
Язык : Russian
Default : Нет
Forced : Нет
Текст #2
Идентификатор : 5
Формат : UTF-8
Идентификатор кодека : S_TEXT/UTF8
Идентификатор кодека/Информация : UTF-8 Plain Text
Язык : English
Default : Нет
Forced : Нет
Меню
00:00:00.000 : en:00:00:00.000
00:17:31.217 : en:00:17:31.217
00:36:38.446 : en:00:36:38.446
00:54:55.125 : en:00:54:55.125
01:16:39.220 : en:01:16:39.220
01:34:52.228 : en:01:34:52.228
01:47:17.848 : en:01:47:17.848
01:55:45.522 : en:01:55:45.522

Награды...

Оскар, 2013 год

Номинации (3):
  • Лучшая мужская роль (Хоакин Феникс)
  • Лучшая мужская роль второго плана (Филип Сеймур Хоффман)
  • Лучшая женская роль второго плана (Эми Адамс)
Золотой глобус, 2013 год

Номинации (3):
  • Лучшая мужская роль (драма) (Хоакин Феникс)
  • Лучшая мужская роль второго плана (Филип Сеймур Хоффман)
  • Лучшая женская роль второго плана (Эми Адамс)
Британская академия, 2013 год

Номинации (4):
  • Лучшая мужская роль (Хоакин Феникс)
  • Лучшая мужская роль второго плана (Филип Сеймур Хоффман)
  • Лучшая женская роль второго плана (Эми Адамс)
  • Лучший оригинальный сценарий
Венецианский кинофестиваль, 2012 год

Победитель (4):
  • Серебряный лев за лучшую режиссерскую работу (Пол Томас Андерсон)
  • Кубок Вольпи за лучшую мужскую роль (Филип Сеймур Хоффман, Хоакин Феникс)
  • Приз международной ассоциации кинокритиков - лучший фильм
  • Приз ФИПРЕССИ (конкурсная программа)
Номинации (1):
  • Золотой лев
Скриншоты:


Время раздачи: 24/7 (до 10 скачавших)

[Цитировать]

Топик был перенесен из форума Новинки кинопроката (HD Video) в форум Зарубежное кино (HD Video)
Bootch



Показать сообщения:    

Текущее время: 05-Дек 15:34

Часовой пояс: UTC + 3


Вы не можете начинать темы
Вы не можете отвечать на сообщения
Вы не можете редактировать свои сообщения
Вы не можете удалять свои сообщения
Вы не можете голосовать в опросах
Вы не можете прикреплять файлы к сообщениям
Вы не можете скачивать файлы

!ВНИМАНИЕ!
Сайт не предоставляет электронные версии произведений, а занимается лишь коллекционированием и каталогизацией ссылок, присылаемых и публикуемых на форуме нашими читателями. Если вы являетесь правообладателем какого-либо представленного материала и не желаете, чтобы ссылка на него находилась в нашем каталоге, свяжитесь с нами, и мы незамедлительно удалим ее. Файлы для обмена на трекере предоставлены пользователями сайта, и администрация не несет ответственности за их содержание. Просьба не заливать файлы, защищенные авторскими правами, а также файлы нелегального содержания!