[ Сегодня идет свободное скачивание без начисления Download ]


Статистика раздачи
Нет
 
   
 
 
 
-BBC: Живая Природа. Райские птицы / BBC: Natural World. Birds of Paradise- Русское название: BBC: Живая Природа. Райские птицы
Оригинальное название: BBC: Natural World. Birds of Paradise
Режиссер / Телекомпания: Харви Джонс, Великобритания, Tigress Productions, BBC, THIRTEEN, WNET.ORG, PBS
Год выпуска: 2010
Жанр: Документальный, научно-популярный, природа, исследование
Описание:
Эти создания столь прекрасны, что они казались людям спустившимися с небес. Не удивительно, что европейцы, впервые увидев их, посчитали птиц обитателями райского сада Эдема. Этим Эдемом была Новая Гвинея - обитаемый остров, который еще не исследовали европейцы. И поныне эти великолепные создания можно найти только здесь. Речь идет о невиданных птицах. Их красота кажется чрезмерной: такого оперения почти ни у кого не увидишь. А брачные танцы, которые, пожалуй, можно назвать самыми замысловатыми в животном мире, поражают воображение даже сильнее, чем их облик. И хотя эти птицы не из Эдема, они все равно заслуживают название, изначально данное им европейскими учеными - Райские птицы. Про всё это Вам расскажет и покажет в своём удивительном путешествии на остров Новая Гвинея сэр Дэвид Аттэнборо.
Продолжительность: 00:51:31
Перевод: Дублированный
Качество видео: BDRip [1080p]
Видео: MPEG-4 AVC, 15.0 Мбит/с, 1920x1080
Аудио: Русский AС3, 2 ch, 448 Кбит/с
Аудио: Английский AС3, 6 ch, 448 Кбит/с
Субтитры: Английские

MediaInfo

Complete name : D:\Рип\Birds of the Gods BDRip 1080p.mkv
Format : Matroska
Format version : Version 2
File size : 5.70 GiB
Duration : 51mn 31s
Overall bit rate mode : Variable
Overall bit rate : 15.8 Mbps
Encoded date : UTC 2012-08-09 13:49:47
Writing application : mkvmerge v5.7.0 ('The Whirlwind') built on Jul 8 2012 20:08:51
Writing library : libebml v1.2.3 + libmatroska v1.3.0
Video
ID : 1
Format : AVC
Format/Info : Advanced Video Codec
Format profile : [email protected]
Format settings, CABAC : Yes
Format settings, ReFrames : 3 frames
Codec ID : V_MPEG4/ISO/AVC
Duration : 51mn 31s
Bit rate mode : Variable
Bit rate : 15.0 Mbps
Maximum bit rate : 16.5 Mbps
Width : 1 920 pixels
Height : 1 080 pixels
Display aspect ratio : 16:9
Frame rate : 25.000 fps
Color space : YUV
Chroma subsampling : 4:2:0
Bit depth : 8 bits
Scan type : Progressive
Bits/(Pixel*Frame) : 0.289
Stream size : 5.26 GiB (92%)
Writing library : x264 core 125 r2200 999b753
Encoding settings : cabac=1 / ref=4 / deblock=1:-1:-1 / analyse=0x3:0x113 / me=umh / subme=10 / psy=1 / psy_rd=1.00:0.00 / mixed_ref=1 / me_range=28 / chroma_me=1 / trellis=2 / 8x8dct=1 / cqm=0 / deadzone=21,11 / fast_pskip=1 / chroma_qp_offset=-2 / threads=6 / lookahead_threads=1 / sliced_threads=0 / slices=4 / nr=0 / decimate=1 / interlaced=0 / bluray_compat=1 / constrained_intra=0 / bframes=3 / b_pyramid=1 / b_adapt=2 / b_bias=0 / direct=3 / weightb=1 / open_gop=1 / weightp=1 / keyint=250 / keyint_min=1 / scenecut=40 / intra_refresh=0 / rc_lookahead=100 / rc=2pass / mbtree=1 / bitrate=15000 / ratetol=1.0 / qcomp=0.60 / qpmin=0 / qpmax=69 / qpstep=4 / cplxblur=20.0 / qblur=0.5 / vbv_maxrate=16500 / vbv_bufsize=15000 / nal_hrd=vbr / ip_ratio=1.40 / aq=1:1.00
Language : English
Default : Yes
Forced : No
Audio #1
ID : 2
Format : AC-3
Format/Info : Audio Coding 3
Mode extension : CM (complete main)
Format settings, Endianness : Big
Codec ID : A_AC3
Duration : 51mn 31s
Bit rate mode : Constant
Bit rate : 448 Kbps
Channel(s) : 2 channels
Channel positions : Front: L R
Sampling rate : 48.0 KHz
Bit depth : 16 bits
Compression mode : Lossy
Stream size : 165 MiB (3%)
Language : Russian
Default : Yes
Forced : Yes
Audio #2
ID : 3
Format : AC-3
Format/Info : Audio Coding 3
Mode extension : CM (complete main)
Format settings, Endianness : Big
Codec ID : A_AC3
Duration : 51mn 31s
Bit rate mode : Constant
Bit rate : 448 Kbps
Channel(s) : 6 channels
Channel positions : Front: L C R, Side: L R, LFE
Sampling rate : 48.0 KHz
Bit depth : 16 bits
Compression mode : Lossy
Stream size : 165 MiB (3%)
Language : English
Default : No
Forced : No
Text
ID : 4
Format : PGS
Muxing mode : zlib
Codec ID : S_HDMV/PGS
Codec ID/Info : The same subtitle format used on BDs/HD-DVDs
Language : English
Default : No
Forced : No
Скриншоты:

[Цитировать]



Показать сообщения:    

Текущее время: 06-Дек 20:58

Часовой пояс: UTC + 3


Вы не можете начинать темы
Вы не можете отвечать на сообщения
Вы не можете редактировать свои сообщения
Вы не можете удалять свои сообщения
Вы не можете голосовать в опросах
Вы не можете прикреплять файлы к сообщениям
Вы не можете скачивать файлы

!ВНИМАНИЕ!
Сайт не предоставляет электронные версии произведений, а занимается лишь коллекционированием и каталогизацией ссылок, присылаемых и публикуемых на форуме нашими читателями. Если вы являетесь правообладателем какого-либо представленного материала и не желаете, чтобы ссылка на него находилась в нашем каталоге, свяжитесь с нами, и мы незамедлительно удалим ее. Файлы для обмена на трекере предоставлены пользователями сайта, и администрация не несет ответственности за их содержание. Просьба не заливать файлы, защищенные авторскими правами, а также файлы нелегального содержания!