[ Сегодня идет свободное скачивание без начисления Download ]


Статистика раздачи
Нет
 
   
 
Top  
 
 
-BBC: Как устроена Земля [2 из 2] / Earth Machine (2011) SATRip- Русское название: BBC: Как устроена Земля [2 из 2]
Оригинальное название: Earth Machine
Режиссер / Телекомпания: Ник Шулинджин-Джордан, Майк Сли
Год выпуска: 2011
Жанр: Документальный
Описание:
Механизм планеты Земля находится в непрестанном движении под воздействием сил, бушующих в сердце планеты. Этот процесс начался 4 миллиарда 600 миллионов лет назад, когда Земля только сформировалась. В то время она была шаром раскаленной лавы. За миллионы лет она остыла, и на ней образовалась твердая кора. Через трещины в этой коре прорывался новый вид лавы. Она была легче и формировала плиты на поверхности коры, которые потом стали сушей.
01. Суша
Механизм планеты Земля находится в непрестанном движении под воздействием сил, бушующих в сердце планеты. Этот процесс начался 4 миллиарда 600 миллионов лет назад, когда Земля только сформировалась. В то время она была шаром раскаленной лавы. За миллионы лет она остыла, и на ней образовалась твердая кора. Через трещины в этой коре прорывался новый вид лавы. Она была легче и формировала плиты на поверхности коры, которые потом стали сушей.
02. Океан
Океаны занимают три четверти поверхности нашей планеты. Однако девяносто процентов морского дна никто никогда не видел. Многими масштабнейшими геологическими процессами движут силы, скрытые глубоко под толщей воды. Под морским дном находится неизведанная территория.
Продолжительность: 00:49:58
Перевод: Одноголосый закадровый, профессиональный
Видеокодек: Xvid
Битрейт видео: ~25.00fps 1822kbps
Размер кадра: 704x400
Качество видео: SATRip
Аудиокодек: MP3
Битрейт аудио: 48000Hz stereo 128kbps

MediaInfo:

Формат : AVI
Формат/Информация : Audio Video Interleave
Размер файла : 701 Мбайт
Продолжительность : 49 м.
Общий поток : 1961 Кбит/сек
Программа кодирования : VirtualDubMod 1.5.10.2 (build 2540/release)
Библиотека кодирования : VirtualDubMod build 2540/release
Видео
Идентификатор : 0
Формат : MPEG-4 Visual
Профиль формата : Advanced [email protected]
Параметр BVOP формата : 2
Параметр QPel формата : Нет
Параметр GMC формата : Без точки перехода
Параметр матрицы формата : Default (H.263)
Режим смешивания : Сжатый битовый поток
Идентификатор кодека : XVID
Идентификатор кодека/Подсказка : XviD
Продолжительность : 49 м.
Битрейт : 1823 Кбит/сек
Ширина : 704 пикселя
Высота : 400 пикселей
Соотношение сторон : 16:9
Частота кадров : 25,000 кадров/сек
Цветовое пространство : YUV
Субдискретизация насыщенности : 4:2:0
Битовая глубина : 8 бит
Тип развёртки : Прогрессивная
Метод сжатия : С потерями
Бит/(Пиксели*Кадры) : 0.259
Размер потока : 651 Мбайт (93%)
Библиотека кодирования : XviD 1.2.1 (UTC 2008-12-04)
Аудио
Идентификатор : 1
Формат : MPEG Audio
Версия формата : Version 1
Профиль формата : Layer 3
Режим : Joint stereo
Расширение режима : MS Stereo
Идентификатор кодека : 55
Идентификатор кодека/Подсказка : MP3
Продолжительность : 49 м.
Вид битрейта : Постоянный
Битрейт : 128 Кбит/сек
Каналы : 2 канала
Частота : 48,0 КГц
Метод сжатия : С потерями
Размер потока : 45,7 Мбайт (7%)
Выравнивание : Соединение по промежуткам
Продолжительность промежутка : 40 мс. (1,00 видеокадр)
Время предзагрузки промежутка : 504 мс.
Скриншоты:

[Цитировать]



Показать сообщения:    

Текущее время: 06-Дек 06:00

Часовой пояс: UTC + 3


Вы не можете начинать темы
Вы не можете отвечать на сообщения
Вы не можете редактировать свои сообщения
Вы не можете удалять свои сообщения
Вы не можете голосовать в опросах
Вы не можете прикреплять файлы к сообщениям
Вы не можете скачивать файлы

!ВНИМАНИЕ!
Сайт не предоставляет электронные версии произведений, а занимается лишь коллекционированием и каталогизацией ссылок, присылаемых и публикуемых на форуме нашими читателями. Если вы являетесь правообладателем какого-либо представленного материала и не желаете, чтобы ссылка на него находилась в нашем каталоге, свяжитесь с нами, и мы незамедлительно удалим ее. Файлы для обмена на трекере предоставлены пользователями сайта, и администрация не несет ответственности за их содержание. Просьба не заливать файлы, защищенные авторскими правами, а также файлы нелегального содержания!