[ Сегодня идет свободное скачивание без начисления Download ]


Статистика раздачи
Нет
 
   
 
Top  
 
 
- «Грандиозный финал бессмертной саги»- Год выпуска: 2012
Страна: США
Производство: Summit Entertainment, Lionsgate, Sunswept Entertainment, Temple Hill
Жанр: фэнтези, драма, мелодрама, приключения-Режиссер: Билл Кондон-В ролях: Кристен Стюарт, Роберт Паттинсон, Тэйлор Лотнер, МакКензи Фой, Дакота Фэннинг, Джексон Рэтбоун, Эшли Грин, Анна Кендрик, Никки Рид, Майкл Шин, Келлан Латс, Питер Фачинелли, Элизабет Ризер, Билли Бурк, Джэми Кэмпбелл Бауэр, Камерон Брайт, Чэск Спенсер, Кристофер Хейердал, Дэниэл Кадмор, Тинсел Кори, Чарли Бьюли-Перевод: Профессиональный (полное дублирование) -Описание: Белла, став вампиром, постепенно свыкается со своей новой природой. В этом ей помогают Эдвард и остальные члены семьи Калленов. К тому же теперь у Беллы есть дочь Ренесми и вечность впереди. Джейкоб, запечатленный с Ренесми, становится для девочки другом и наставником. Ненадолго для героев наступают спокойные, счастливые дни.
Все заканчивается, когда вести о Ренесми доходят до Вольтури. «Обращение» детей строго запрещено в мире вампиров. Не зная о необычном происхождении Ренесми, Вольтури собирают армию и направляются в Форкс, чтобы уничтожить Калленов.
- -Качество видео: BDRip-Продолжительность: 01:55:12-Формат: AVI
Видео кодек: MPEG Audio
Аудио кодек: XviD
Видео: 688x288 (2.39:1), 23.976 fps, ~767 kbps avg, 0.16 bit/pixel
Аудио: 48 kHz, MPEG Layer 3, 2 ch, ~128.00 kbps avg-Премьера (мир): 14 ноября 2012
Премьера (РФ): 15 ноября 2012, «West» -

Media Info

General
Complete name                    : Сумерки. Сага. Рассвет: Часть 2 .avi
Format                           : AVI
Format/Info                      : Audio Video Interleave
File size                        : 746 MiB
Duration                         : 1h 55mn
Overall bit rate                 : 905 Kbps
Writing application              : VirtualDubMod 1.5.10.3 (build 2550/release)
Writing library                  : VirtualDubMod build 2550/release
Video
ID                               : 0
Format                           : MPEG-4 Visual
Format profile                   : Advanced Simple@L5
Format settings, BVOP            : 1
Format settings, QPel            : No
Format settings, GMC             : No warppoints
Format settings, Matrix          : Custom
Codec ID                         : XVID
Codec ID/Hint                    : XviD
Duration                         : 1h 55mn
Bit rate                         : 768 Kbps
Width                            : 688 pixels
Height                           : 288 pixels
Display aspect ratio             : 2.40:1
Frame rate                       : 23.976 fps
Color space                      : YUV
Chroma subsampling               : 4:2:0
Bit depth                        : 8 bits
Scan type                        : Progressive
Compression mode                 : Lossy
Bits/(Pixel*Frame)               : 0.162
Stream size                      : 633 MiB (85%)
Writing library                  : XviD 73
Audio
ID                               : 1
Format                           : MPEG Audio
Format version                   : Version 1
Format profile                   : Layer 3
Codec ID                         : 55
Codec ID/Hint                    : MP3
Duration                         : 1h 55mn
Bit rate mode                    : Constant
Bit rate                         : 128 Kbps
Channel(s)                       : 2 channels
Sampling rate                    : 48.0 KHz
Compression mode                 : Lossy
Stream size                      : 105 MiB (14%)
Alignment                        : Aligned on interleaves
Interleave, duration             : 42 ms (1.00 video frame)
Interleave, preload duration     : 504 ms
Writing library                  : LAME3.97
Encoding settings                : -m s -V 4 -q 2 -lowpass 17 -b 128

[Цитировать]



Показать сообщения:    

Текущее время: 09-Дек 03:06

Часовой пояс: UTC + 3


Вы не можете начинать темы
Вы не можете отвечать на сообщения
Вы не можете редактировать свои сообщения
Вы не можете удалять свои сообщения
Вы не можете голосовать в опросах
Вы не можете прикреплять файлы к сообщениям
Вы не можете скачивать файлы

!ВНИМАНИЕ!
Сайт не предоставляет электронные версии произведений, а занимается лишь коллекционированием и каталогизацией ссылок, присылаемых и публикуемых на форуме нашими читателями. Если вы являетесь правообладателем какого-либо представленного материала и не желаете, чтобы ссылка на него находилась в нашем каталоге, свяжитесь с нами, и мы незамедлительно удалим ее. Файлы для обмена на трекере предоставлены пользователями сайта, и администрация не несет ответственности за их содержание. Просьба не заливать файлы, защищенные авторскими правами, а также файлы нелегального содержания!