[ Сегодня идет свободное скачивание без начисления Download ]


Статистика раздачи
Нет
 
   
 
 
 
-BBC: Планета динозавров / BBC: Planet Dinosaur (2011) BDRip [H.264/1080p] (6 серий из 6)- Русское название: BBC: Планета динозавров
Оригинальное название: BBC: Planet Dinosaur
Режиссер / Телекомпания: Эндрю Коэн, Найджел Пэтерсон / BBC
Год выпуска: 2011
Жанр: Документальный
Описание:
"Планета динозавров" является самым амбициозным проектом, созданным с помощью компьютерной графики, после "Прогулок с динозаврами" (Walking with Dinosaurs), выпущенных десятилетие назад. Работа над мультфильмом началась на студии "Jellyfish Pictures" в апреле 2010 года и завершится к этой осени на студии BBC1. Всего в проекте показано 50 динозавров, созданных в компьютерной графике, в 2500 сценах. Все они были спроектированы на студии "Jellyfish Pictures" командой из художников-раскадровщиков, художников-превизуализаторов, цифровых скульпторов, специалистов по моделированию, специалистов по созданию текстур и концептов, специалистов по Matte Painting, монтажеров, художников-мультипликаторов, осветителей и компоновщиков. "При создания 2D сериала мы применяли рабочий процесс, схожий с процессом художественного фильма, хотя цикл создания изображений был намного короче, а бюджет меньше. Однако у нас были грандиозные планы, - сказал Фил Добри, управляющий директор "Jellyfish Pictures" , - У нас была мобильная камера, множество съемок с рук, взаимодействий динозавров друг с другом и с окружающей средой. Команда декораторов и осветителей разработала целую экосистему для генерации компьютерной графикой окружающей среды с замысловатыми местностями, растениями и скалами".
Продолжительность: 6 х 00:28:00 (~02:48:00)
Перевод: Авторский (одноголосый) В.Курдов

Видеокодек: MPEG-4 AVC/H.264
Битрейт видео: ~9,0 Mbps
Размер кадра: 1920x1080
Качество видео: BDRip [1080p]
Аудио:
1. [русский] AC3, 6 ch, 48 kHz, 384 kbps
2. [english] AC3, 6 ch, 48 kHz, 384 kbps
Субтитры: вшитые, отключаемые
Язык субтитров: русский, английский
Описание серий:

01. Затерянный мир / Lost World.

Описание: (период - 95 миллионов лет назад, поздний меловой период, Северная Африка)
Сериал начинается в Северной Африке, где два из самых больших хищников в мире боролись за превосходство. 13-метровый и 7-тонный кархародонтозавр был огромным животным, гигантским ящероподобным плотоядным с псевдоакульими зубами более чем 6-дюймовой длины. Это был успешный охотник, который ранил своих жертв, пока те не истекали кровью. Но открытие верхней челюсти в Марокко показало еще более крупного плотоядного убийцу - спинозавра. На четыре метра длиннее тираннозавра рэкса, спинозавр, как считают, был одним из крупнейших убийц, что когда-либо ходили по Земле. Но в отличие от питающегося мясом кархародонтозавра, спинозавр, главным образом, ел рыбу, живя и охотясь почти исключительно в воде. Как и всем хищникам, которые разделяют ареал, этим двоим исполинам приходилось конкурировать за пищу. Планета динозавров проливает свет на что было похоже одно такое смертельное сражение, и узнает, какое гигантское животное пережило битву насмерть.
Продолжительность: 00:28:03
Видеокодек: MPEG-4 AVC/H.264
Битрейт видео: ~9,0 Mbps
Размер кадра: 1920x1080
Качество видео: BDRip [1080p]
Аудио:
1. [русский] AC3, 6 ch, 48 kHz, 384 kbps
2. [english] AC3, 6 ch, 48 kHz, 384 kbps

MediaInfo

Общее
Уникальный идентификатор : 196403395459459643513120837802230332005 (0x93C1EB054A425CBBA5DD700A43A4BA65)
Полное имя : g:\!!! Releases\BBC.Planet.Dinosaur.BDRip.1080p\Planet.Dinosaur.Episode.1.Lost.World.BDRip.1080p.mkv
Формат : Matroska
Версия формата : Version 2
Размер файла : 1,93 Гбайт
Продолжительность : 28 м.
Общий поток : 9771 Кбит/сек
Дата кодирования : UTC 2012-06-17 15:14:14
Программа кодирования : mkvmerge v5.5.0 ('Healer') built on Apr 6 2012 21:43:24
Библиотека кодирования : libebml v1.2.3 + libmatroska v1.3.0
Видео
Идентификатор : 1
Формат : AVC
Формат/Информация : Advanced Video Codec
Профиль формата : [email protected]
Параметр CABAC формата : Да
Параметр ReFrames формата : 3 кадра
Идентификатор кодека : V_MPEG4/ISO/AVC
Продолжительность : 28 м.
Битрейт : 9000 Кбит/сек
Ширина : 1920 пикселей
Высота : 1080 пикселей
Соотношение сторон : 16:9
Частота кадров : 25,000 кадров/сек
Цветовое пространство : YUV
Субдискретизация насыщенности : 4:2:0
Битовая глубина : 8 бит
Тип развёртки : Прогрессивная
Бит/(Пиксели*Кадры) : 0.174
Размер потока : 1,74 Гбайт (90%)
Заголовок : Planet Dinosaur. Episode 1. Lost World
Библиотека кодирования : x264 core 120 r2164 da19765
Настройки программы : cabac=1 / ref=4 / deblock=1:-3:-3 / analyse=0x3:0 / me=tesa / subme=11 / psy=1 / psy_rd=1.00:0.00 / mixed_ref=1 / me_range=16 / chroma_me=1 / trellis=2 / 8x8dct=1 / cqm=0 / deadzone=21,11 / fast_pskip=0 / chroma_qp_offset=-2 / threads=6 / sliced_threads=0 / nr=0 / decimate=1 / interlaced=0 / bluray_compat=0 / constrained_intra=0 / bframes=7 / b_pyramid=1 / b_adapt=2 / b_bias=0 / direct=3 / weightb=1 / open_gop=1 / weightp=2 / keyint=250 / keyint_min=25 / scenecut=40 / intra_refresh=0 / rc_lookahead=40 / rc=2pass / mbtree=1 / bitrate=9000 / ratetol=1.0 / qcomp=0.60 / qpmin=10 / qpmax=50 / qpstep=4 / cplxblur=20.0 / qblur=0.5 / vbv_maxrate=50000 / vbv_bufsize=50000 / nal_hrd=none / ip_ratio=1.40 / aq=1:0.80
Язык : Russian
Аудио #1
Идентификатор : 2
Формат : AC-3
Формат/Информация : Audio Coding 3
Расширение режима : CM (complete main)
Идентификатор кодека : A_AC3
Продолжительность : 28 м.
Вид битрейта : Постоянный
Битрейт : 384 Кбит/сек
Каналы : 6 каналов
Расположение каналов : Front: L C R, Side: L R, LFE
Частота : 48,0 КГц
Битовая глубина : 16 бит
Метод сжатия : С потерями
Размер потока : 77,6 Мбайт (4%)
Заголовок : Russian
Язык : Russian
Аудио #2
Идентификатор : 3
Формат : AC-3
Формат/Информация : Audio Coding 3
Расширение режима : CM (complete main)
Идентификатор кодека : A_AC3
Продолжительность : 28 м.
Вид битрейта : Постоянный
Битрейт : 384 Кбит/сек
Каналы : 2 канала
Расположение каналов : Front: L R
Частота : 48,0 КГц
Битовая глубина : 16 бит
Метод сжатия : С потерями
Размер потока : 77,6 Мбайт (4%)
Заголовок : English
Язык : English
Текст #1
Идентификатор : 4
Формат : UTF-8
Идентификатор кодека : S_TEXT/UTF8
Идентификатор кодека/Информация : UTF-8 Plain Text
Заголовок : Russian
Язык : Russian
Текст #2
Идентификатор : 5
Формат : UTF-8
Идентификатор кодека : S_TEXT/UTF8
Идентификатор кодека/Информация : UTF-8 Plain Text
Заголовок : English
Язык : English
Меню
00:00:00.000 : en:00:00:00.000
00:06:55.640 : en:00:06:55.640
00:12:37.000 : en:00:12:37.000
00:20:51.680 : en:00:20:51.680

02. Пернатые драконы / Feathered Dragons.

Описание: (Период - 125 миллионов лет назад, ранний меловой период, Азия; 85 миллионов лет назад, поздний меловой период, Азия). Второй эпизод документального сериала предлагает взглянуть на причудливых и экстраординарных пернатых динозавров, многие из которых были недавно обнаружены. Эти пернатые животные перевернули наше понимание жизни на Земле, поскольку они стирают границы между тем, что мы знаем о динозаврах и птицах. Китай - передовая страна в открытии пернатых динозавров, а также Родина одного из самых необычных открытий на Земле: эпидексиптерикса. Размером с голубя, этот хищник был самым похожим на птицу из всех динозавров и является первым известным случаем использования декоративных перьев. Но перья не были привилегией некрупных существ. От каудиптерикса до синозавроптерикса и 8-метрового гигантораптора, перья, возможно, использовались для полета, для изоляции или даже для привлечения партнера. Эти динозавры не только намек того, как животные, возможно, развили полет, но также и показывают, что динозавры могут все еще жить среди нас сегодня - как птицы.
Продолжительность: 00:29:18
Видеокодек: MPEG-4 AVC/H.264
Битрейт видео: ~10,5 Mbps
Размер кадра: 1920x1080
Качество видео: BDRip [1080p]
Аудио:
1. [русский] AC3, 6 ch, 48 kHz, 384 kbps
2. [english] AC3, 6 ch, 48 kHz, 384 kbps

MediaInfo

Общее
Уникальный идентификатор : 205847183137409136874323173952287167008 (0x9ADCB9B3A1AD5BE7A5AAE80F34245220)
Полное имя : g:\!!! Releases\BBC.Planet.Dinosaur.BDRip.1080p\Planet.Dinosaur.Episode.2.Feathered.Dragons.BDRip.1080p.mkv
Формат : Matroska
Версия формата : Version 2
Размер файла : 2,31 Гбайт
Продолжительность : 29 м.
Общий поток : 11,3 Мбит/сек
Дата кодирования : UTC 2012-06-17 15:19:18
Программа кодирования : mkvmerge v5.5.0 ('Healer') built on Apr 6 2012 21:43:24
Библиотека кодирования : libebml v1.2.3 + libmatroska v1.3.0
Видео
Идентификатор : 1
Формат : AVC
Формат/Информация : Advanced Video Codec
Профиль формата : [email protected]
Параметр CABAC формата : Да
Параметр ReFrames формата : 3 кадра
Идентификатор кодека : V_MPEG4/ISO/AVC
Продолжительность : 29 м.
Битрейт : 10,5 Мбит/сек
Ширина : 1920 пикселей
Высота : 1080 пикселей
Соотношение сторон : 16:9
Частота кадров : 25,000 кадров/сек
Цветовое пространство : YUV
Субдискретизация насыщенности : 4:2:0
Битовая глубина : 8 бит
Тип развёртки : Прогрессивная
Бит/(Пиксели*Кадры) : 0.203
Размер потока : 2,11 Гбайт (91%)
Заголовок : Planet Dinosaur. Episode 2. Feathered Dragons
Библиотека кодирования : x264 core 120 r2164 da19765
Настройки программы : cabac=1 / ref=4 / deblock=1:-3:-3 / analyse=0x3:0 / me=tesa / subme=11 / psy=1 / psy_rd=1.00:0.00 / mixed_ref=1 / me_range=16 / chroma_me=1 / trellis=2 / 8x8dct=1 / cqm=0 / deadzone=21,11 / fast_pskip=0 / chroma_qp_offset=-2 / threads=6 / sliced_threads=0 / nr=0 / decimate=1 / interlaced=0 / bluray_compat=0 / constrained_intra=0 / bframes=5 / b_pyramid=1 / b_adapt=2 / b_bias=0 / direct=3 / weightb=1 / open_gop=1 / weightp=2 / keyint=250 / keyint_min=25 / scenecut=40 / intra_refresh=0 / rc_lookahead=40 / rc=2pass / mbtree=1 / bitrate=10500 / ratetol=1.0 / qcomp=0.60 / qpmin=10 / qpmax=50 / qpstep=4 / cplxblur=20.0 / qblur=0.5 / vbv_maxrate=50000 / vbv_bufsize=50000 / nal_hrd=none / ip_ratio=1.40 / aq=1:0.80
Язык : Russian
Аудио #1
Идентификатор : 2
Формат : AC-3
Формат/Информация : Audio Coding 3
Расширение режима : CM (complete main)
Идентификатор кодека : A_AC3
Продолжительность : 29 м.
Вид битрейта : Постоянный
Битрейт : 384 Кбит/сек
Каналы : 6 каналов
Расположение каналов : Front: L C R, Side: L R, LFE
Частота : 48,0 КГц
Битовая глубина : 16 бит
Метод сжатия : С потерями
Размер потока : 80,7 Мбайт (3%)
Заголовок : Russian
Язык : Russian
Аудио #2
Идентификатор : 3
Формат : AC-3
Формат/Информация : Audio Coding 3
Расширение режима : CM (complete main)
Идентификатор кодека : A_AC3
Продолжительность : 29 м.
Вид битрейта : Постоянный
Битрейт : 384 Кбит/сек
Каналы : 2 канала
Расположение каналов : Front: L R
Частота : 48,0 КГц
Битовая глубина : 16 бит
Метод сжатия : С потерями
Размер потока : 80,7 Мбайт (3%)
Заголовок : English
Язык : English
Текст #1
Идентификатор : 4
Формат : UTF-8
Идентификатор кодека : S_TEXT/UTF8
Идентификатор кодека/Информация : UTF-8 Plain Text
Заголовок : Russian
Язык : Russian
Текст #2
Идентификатор : 5
Формат : UTF-8
Идентификатор кодека : S_TEXT/UTF8
Идентификатор кодека/Информация : UTF-8 Plain Text
Заголовок : English
Язык : English
Меню
00:00:00.000 : en:00:00:00.000
00:07:12.640 : en:00:07:12.640
00:13:56.640 : en:00:13:56.640
00:21:15.600 : en:00:21:15.600

03. Последние убийцы / Last Killers.

Описание: (период - 75 миллионов лет назад, поздний меловой период, Северная Америка; 70 миллионов лет назад, поздний меловой период, Мадагаскар). Третий эпизод рассматривает последнее поколение динозавров-убийц - плотоядных животных, которые подняли убийство на новый уровень. К концу мелового периода - 75 миллионов лет назад - эти гигантские и специализированные охотники-убийцы распространились по всему земному шару. На южных континентах безраздельно властвовали сильные и мускулистые абелизавриды, но были и известные тираннозавриды, которые доминировали на севере. Пока северные дасплетозавры, охотящиеся в стае, использовали свои чрезвычайно развитые обоняние и слух, чтобы найти жертву вроде рогатых животных размером с носорога, хазмозавров, в южном полушарии правил короткомордый маджунгазавр. И хотя острозубый маджунгазавр был более эффективным убийцей, чем пернатый рахонавис, это не останавливало его от каннибализма и охоты на себе подобных.
Продолжительность: 00:29:18
Видеокодек: MPEG-4 AVC/H.264
Битрейт видео: ~8,7 Mbps
Размер кадра: 1920x1080
Качество видео: BDRip [1080p]
Аудио:
1. [русский] AC3, 6 ch, 48 kHz, 384 kbps
2. [english] AC3, 6 ch, 48 kHz, 384 kbps

MediaInfo

Общее
Уникальный идентификатор : 247103245227131825257820514994286608283 (0xB9E65A9B6823EA568349D9501759BF9B)
Полное имя : g:\!!! Releases\BBC.Planet.Dinosaur.BDRip.1080p\Planet.Dinosaur.Episode.3.Last.Killers.BDRip.1080p.mkv
Формат : Matroska
Версия формата : Version 2
Размер файла : 1,95 Гбайт
Продолжительность : 29 м.
Общий поток : 9467 Кбит/сек
Дата кодирования : UTC 2012-06-17 15:24:09
Программа кодирования : mkvmerge v5.5.0 ('Healer') built on Apr 6 2012 21:43:24
Библиотека кодирования : libebml v1.2.3 + libmatroska v1.3.0
Видео
Идентификатор : 1
Формат : AVC
Формат/Информация : Advanced Video Codec
Профиль формата : [email protected]
Параметр CABAC формата : Да
Параметр ReFrames формата : 3 кадра
Идентификатор кодека : V_MPEG4/ISO/AVC
Продолжительность : 29 м.
Битрейт : 8700 Кбит/сек
Ширина : 1920 пикселей
Высота : 1080 пикселей
Соотношение сторон : 16:9
Частота кадров : 25,000 кадров/сек
Цветовое пространство : YUV
Субдискретизация насыщенности : 4:2:0
Битовая глубина : 8 бит
Тип развёртки : Прогрессивная
Бит/(Пиксели*Кадры) : 0.168
Размер потока : 1,75 Гбайт (90%)
Заголовок : Planet Dinosaur. Episode 3. Last Killers
Библиотека кодирования : x264 core 120 r2164 da19765
Настройки программы : cabac=1 / ref=4 / deblock=1:-3:-3 / analyse=0x3:0 / me=tesa / subme=11 / psy=1 / psy_rd=1.00:0.00 / mixed_ref=1 / me_range=16 / chroma_me=1 / trellis=2 / 8x8dct=1 / cqm=0 / deadzone=21,11 / fast_pskip=0 / chroma_qp_offset=-2 / threads=6 / sliced_threads=0 / nr=0 / decimate=1 / interlaced=0 / bluray_compat=0 / constrained_intra=0 / bframes=6 / b_pyramid=1 / b_adapt=2 / b_bias=0 / direct=3 / weightb=1 / open_gop=1 / weightp=2 / keyint=250 / keyint_min=25 / scenecut=40 / intra_refresh=0 / rc_lookahead=40 / rc=2pass / mbtree=1 / bitrate=8700 / ratetol=1.0 / qcomp=0.60 / qpmin=10 / qpmax=50 / qpstep=4 / cplxblur=20.0 / qblur=0.5 / vbv_maxrate=50000 / vbv_bufsize=50000 / nal_hrd=none / ip_ratio=1.40 / aq=1:0.80
Язык : Russian
Аудио #1
Идентификатор : 2
Формат : AC-3
Формат/Информация : Audio Coding 3
Расширение режима : CM (complete main)
Идентификатор кодека : A_AC3
Продолжительность : 29 м.
Вид битрейта : Постоянный
Битрейт : 384 Кбит/сек
Каналы : 6 каналов
Расположение каналов : Front: L C R, Side: L R, LFE
Частота : 48,0 КГц
Битовая глубина : 16 бит
Метод сжатия : С потерями
Размер потока : 80,9 Мбайт (4%)
Заголовок : Russian
Язык : Russian
Аудио #2
Идентификатор : 3
Формат : AC-3
Формат/Информация : Audio Coding 3
Расширение режима : CM (complete main)
Идентификатор кодека : A_AC3
Продолжительность : 29 м.
Вид битрейта : Постоянный
Битрейт : 384 Кбит/сек
Каналы : 2 канала
Расположение каналов : Front: L R
Частота : 48,0 КГц
Битовая глубина : 16 бит
Метод сжатия : С потерями
Размер потока : 80,9 Мбайт (4%)
Заголовок : English
Язык : English
Текст #1
Идентификатор : 4
Формат : UTF-8
Идентификатор кодека : S_TEXT/UTF8
Идентификатор кодека/Информация : UTF-8 Plain Text
Заголовок : Russian
Язык : Russian
Текст #2
Идентификатор : 5
Формат : UTF-8
Идентификатор кодека : S_TEXT/UTF8
Идентификатор кодека/Информация : UTF-8 Plain Text
Заголовок : English
Язык : English
Меню
00:00:00.000 : en:00:00:00.000
00:06:58.560 : en:00:06:58.560
00:12:49.160 : en:00:12:49.160
00:20:47.320 : en:00:20:47.320

04. Борьба за жизнь / Fight for Life.

Описание: (период - 147 миллионов лет назад, поздний юрский период, Европа; 150 миллионов лет назад, поздний юрский период, Северная Америка).
Этот эпизод посвящен юрскому периоду, когда первые гигантские убийцы преследовали на Земле и скрывались в море; время, когда малейшее преимущество означало разницу между жизнью и смертью. В Северной Америке доминирует культовый аллозавр - подстерегающий охотник со смертельным укусом. Даже тяжело бронированный стегозавр не был защищен от этого убийцы, и невероятные доказательства проливают свет на противостояние этих двух гигантов. Жизнь в юрских океанах была не легче; в 2008 было обнаружено ископаемое на замороженном острове далеко в Арктике. Это была колоссальная морская рептилия, в два раза крупнее большинства океанских хищников, 15-метровой длины и весом около 45 тонн. Это был хищник Х. Один только его череп был почти в два раза больше черепа тираннозавра рэкса, с силой укуса, непревзойденной кем-либо в юрских морях. Равновесие сил между хищником и добычей - тонкое, поскольку добыча непрерывно развивает различные способы борьбы с хищником. Но для самых успешных и испытанных хищников битва за выживание всегда была в их пользу.
Продолжительность: 00:28:25
Видеокодек: MPEG-4 AVC/H.264
Битрейт видео: ~6,6 Mbps
Размер кадра: 1920x1080
Качество видео: BDRip [1080p]
Аудио:
1. [русский] AC3, 6 ch, 48 kHz, 384 kbps
2. [english] AC3, 6 ch, 48 kHz, 384 kbps

MediaInfo

Общее
Уникальный идентификатор : 221427928362071777770431626933383640589 (0xA69577C02486768D92DD30049D3AB60D)
Полное имя : g:\!!! Releases\BBC.Planet.Dinosaur.BDRip.1080p\Planet.Dinosaur.Episode.4.Fight.for.Life.BDRip.1080p.mkv
Формат : Matroska
Версия формата : Version 2
Размер файла : 1,47 Гбайт
Продолжительность : 28 м.
Общий поток : 7369 Кбит/сек
Дата кодирования : UTC 2012-06-17 15:28:05
Программа кодирования : mkvmerge v5.5.0 ('Healer') built on Apr 6 2012 21:43:24
Библиотека кодирования : libebml v1.2.3 + libmatroska v1.3.0
Видео
Идентификатор : 1
Формат : AVC
Формат/Информация : Advanced Video Codec
Профиль формата : [email protected]
Параметр CABAC формата : Да
Параметр ReFrames формата : 3 кадра
Идентификатор кодека : V_MPEG4/ISO/AVC
Продолжительность : 28 м.
Битрейт : 6600 Кбит/сек
Ширина : 1920 пикселей
Высота : 1080 пикселей
Соотношение сторон : 16:9
Частота кадров : 25,000 кадров/сек
Цветовое пространство : YUV
Субдискретизация насыщенности : 4:2:0
Битовая глубина : 8 бит
Тип развёртки : Прогрессивная
Бит/(Пиксели*Кадры) : 0.127
Размер потока : 1,28 Гбайт (88%)
Заголовок : Planet Dinosaur. Episode 4. Fight for Life
Библиотека кодирования : x264 core 120 r2164 da19765
Настройки программы : cabac=1 / ref=4 / deblock=1:-3:-3 / analyse=0x3:0 / me=tesa / subme=11 / psy=1 / psy_rd=1.00:0.00 / mixed_ref=1 / me_range=16 / chroma_me=1 / trellis=2 / 8x8dct=1 / cqm=0 / deadzone=21,11 / fast_pskip=0 / chroma_qp_offset=-2 / threads=6 / sliced_threads=0 / nr=0 / decimate=1 / interlaced=0 / bluray_compat=0 / constrained_intra=0 / bframes=6 / b_pyramid=1 / b_adapt=2 / b_bias=0 / direct=3 / weightb=1 / open_gop=1 / weightp=2 / keyint=250 / keyint_min=25 / scenecut=40 / intra_refresh=0 / rc_lookahead=40 / rc=2pass / mbtree=1 / bitrate=6600 / ratetol=1.0 / qcomp=0.60 / qpmin=10 / qpmax=50 / qpstep=4 / cplxblur=20.0 / qblur=0.5 / vbv_maxrate=50000 / vbv_bufsize=50000 / nal_hrd=none / ip_ratio=1.40 / aq=1:0.80
Язык : Russian
Аудио #1
Идентификатор : 2
Формат : AC-3
Формат/Информация : Audio Coding 3
Расширение режима : CM (complete main)
Идентификатор кодека : A_AC3
Продолжительность : 28 м.
Вид битрейта : Постоянный
Битрейт : 384 Кбит/сек
Каналы : 6 каналов
Расположение каналов : Front: L C R, Side: L R, LFE
Частота : 48,0 КГц
Битовая глубина : 16 бит
Метод сжатия : С потерями
Размер потока : 78,3 Мбайт (5%)
Заголовок : Russian
Язык : Russian
Аудио #2
Идентификатор : 3
Формат : AC-3
Формат/Информация : Audio Coding 3
Расширение режима : CM (complete main)
Идентификатор кодека : A_AC3
Продолжительность : 28 м.
Вид битрейта : Постоянный
Битрейт : 384 Кбит/сек
Каналы : 2 канала
Расположение каналов : Front: L R
Частота : 48,0 КГц
Битовая глубина : 16 бит
Метод сжатия : С потерями
Размер потока : 78,3 Мбайт (5%)
Заголовок : English
Язык : English
Текст #1
Идентификатор : 4
Формат : UTF-8
Идентификатор кодека : S_TEXT/UTF8
Идентификатор кодека/Информация : UTF-8 Plain Text
Заголовок : Russian
Язык : Russian
Текст #2
Идентификатор : 5
Формат : UTF-8
Идентификатор кодека : S_TEXT/UTF8
Идентификатор кодека/Информация : UTF-8 Plain Text
Заголовок : English
Язык : English
Меню
00:00:00.000 : en:00:00:00.000
00:08:10.960 : en:00:08:10.960
00:14:30.000 : en:00:14:30.000
00:21:33.680 : en:00:21:33.680

05. Новые гиганты / New Giants.

Описание: (период - 100 миллионов лет назад, поздний меловой период, Южная Америка; 95 миллионов лет назад, поздний меловой период, Северная Африка). В этой серии мы исследуем новых гигантом - тяжелейших представителей мира динозавров. Только за последние несколько лет мы раскопали динозавров всех времён. Животных такого огромного размера, что трудно себе представить. Но как и почему эти титаны стали такими массивными? И могло ли какое-либо другое животное атаковать столь огромных чудовищ? Один из этих гигантов затмевал всех остальных. Длиной 35 метров, так же как диплодок. Однако этот динозавр был в семь раз тяжелее, чем диплодок - огромный аргентинозавр, чей позвонок был больше человека. Первое представление об этом новом гиганте появилось в 1990 году во время раскопок в Аргентине (отсюда и пошло его название - аргентинозавр). В течение многих лет эти гиганты считались неуязвимыми, чтобы быть добычей любого хищника - до открытия мапузавра, нового гигантского убийцы, судьба которого была неразрывно связана с аргентинозавром. Эти динозавры были самые крупные из когда либо бродивших по Земле.
Продолжительность: 00:29:09
Видеокодек: MPEG-4 AVC/H.264
Битрейт видео: ~9,000 Mbps
Размер кадра: 1920x1080
Качество видео: BDRip [1080p]
Аудио:
1. [русский] AC3, 6 ch, 48 kHz, 384 kbps
2. [english] AC3, 6 ch, 48 kHz, 384 kbps

MediaInfo

Общее
Уникальный идентификатор : 215599777386200815137987449511033883608 (0xA23301B8DE85FE84A3CC4B7B66B2CBD8)
Полное имя : g:\!!! Releases\BBC.Planet.Dinosaur.BDRip.1080p\Planet.Dinosaur.Episode.5.New.Giants.BDRip.1080p.mkv
Формат : Matroska
Версия формата : Version 2
Размер файла : 1,87 Гбайт
Продолжительность : 29 м.
Общий поток : 9168 Кбит/сек
Дата кодирования : UTC 2012-06-17 15:31:58
Программа кодирования : mkvmerge v5.5.0 ('Healer') built on Apr 6 2012 21:43:24
Библиотека кодирования : libebml v1.2.3 + libmatroska v1.3.0
Видео
Идентификатор : 1
Формат : AVC
Формат/Информация : Advanced Video Codec
Профиль формата : [email protected]
Параметр CABAC формата : Да
Параметр ReFrames формата : 3 кадра
Идентификатор кодека : V_MPEG4/ISO/AVC
Продолжительность : 29 м.
Битрейт : 8400 Кбит/сек
Ширина : 1920 пикселей
Высота : 1080 пикселей
Соотношение сторон : 16:9
Частота кадров : 25,000 кадров/сек
Цветовое пространство : YUV
Субдискретизация насыщенности : 4:2:0
Битовая глубина : 8 бит
Тип развёртки : Прогрессивная
Бит/(Пиксели*Кадры) : 0.162
Размер потока : 1,68 Гбайт (90%)
Заголовок : Planet Dinosaur. Episode 5. New Giants
Библиотека кодирования : x264 core 120 r2164 da19765
Настройки программы : cabac=1 / ref=4 / deblock=1:-3:-3 / analyse=0x3:0 / me=tesa / subme=11 / psy=1 / psy_rd=1.00:0.00 / mixed_ref=1 / me_range=16 / chroma_me=1 / trellis=2 / 8x8dct=1 / cqm=0 / deadzone=21,11 / fast_pskip=0 / chroma_qp_offset=-2 / threads=6 / sliced_threads=0 / nr=0 / decimate=1 / interlaced=0 / bluray_compat=0 / constrained_intra=0 / bframes=10 / b_pyramid=1 / b_adapt=2 / b_bias=0 / direct=3 / weightb=1 / open_gop=1 / weightp=2 / keyint=250 / keyint_min=25 / scenecut=40 / intra_refresh=0 / rc_lookahead=40 / rc=2pass / mbtree=1 / bitrate=8400 / ratetol=1.0 / qcomp=0.60 / qpmin=10 / qpmax=50 / qpstep=4 / cplxblur=20.0 / qblur=0.5 / vbv_maxrate=50000 / vbv_bufsize=50000 / nal_hrd=none / ip_ratio=1.40 / aq=1:0.80
Язык : Russian
Аудио #1
Идентификатор : 2
Формат : AC-3
Формат/Информация : Audio Coding 3
Расширение режима : CM (complete main)
Идентификатор кодека : A_AC3
Продолжительность : 29 м.
Вид битрейта : Постоянный
Битрейт : 384 Кбит/сек
Каналы : 6 каналов
Расположение каналов : Front: L C R, Side: L R, LFE
Частота : 48,0 КГц
Битовая глубина : 16 бит
Метод сжатия : С потерями
Размер потока : 80,4 Мбайт (4%)
Заголовок : Russian
Язык : Russian
Аудио #2
Идентификатор : 3
Формат : AC-3
Формат/Информация : Audio Coding 3
Расширение режима : CM (complete main)
Идентификатор кодека : A_AC3
Продолжительность : 29 м.
Вид битрейта : Постоянный
Битрейт : 384 Кбит/сек
Каналы : 2 канала
Расположение каналов : Front: L R
Частота : 48,0 КГц
Битовая глубина : 16 бит
Метод сжатия : С потерями
Размер потока : 80,4 Мбайт (4%)
Заголовок : English
Язык : English
Текст #1
Идентификатор : 4
Формат : UTF-8
Идентификатор кодека : S_TEXT/UTF8
Идентификатор кодека/Информация : UTF-8 Plain Text
Заголовок : Russian
Язык : Russian
Текст #2
Идентификатор : 5
Формат : UTF-8
Идентификатор кодека : S_TEXT/UTF8
Идентификатор кодека/Информация : UTF-8 Plain Text
Заголовок : English
Язык : English
Меню
00:00:00.000 : en:00:00:00.000
00:07:38.040 : en:00:07:38.040
00:14:01.000 : en:00:14:01.000
00:21:20.280 : en:00:21:20.280

06. Мастера выживания / Great Survivors.

Описание: (период - 65 миллионов лет назад, поздний меловой период, остров Хатсег, Румыния; 92 миллионов лет назад, поздний меловой период, бассейн Зуни, США; 85 миллионов лет назад, поздний меловой период, Монголия, Азия). В этой серии мы исследуем необыкновенную способность динозавров к выживанию и станем свидетелями того, как они видоизменились на протяжении миллионов лет в одних из наиболее странно выглядящих животных, которых когда-либо видел мир. Мы познакомимся с причудливым магьярозавром, который жил в тени самого большого летающего животного - хатцегоптерикса - и показал нам удивительную адаптацию к островной жизни, а также со странным нотронихусом, плотоядным животным, которое отказалось от мяса. Поразительная способность эволюционировать в ещё более разноликие и причудливые формы означала, что это помогло им не только распространятся по всему миру, но также и доминировать на Земле более 160 миллионов лет. Но лишь один беспрецедентный внеземной случай положил конец планете динозавров.
Продолжительность: 00:28:41
Видеокодек: MPEG-4 AVC/H.264
Битрейт видео: ~7,5 Mbps
Размер кадра: 1920x1080
Качество видео: BDRip [1080p]
Аудио:
1. [русский] AC3, 6 ch, 48 kHz, 384 kbps
2. [english] AC3, 6 ch, 48 kHz, 384 kbps

MediaInfo

Общее
Уникальный идентификатор : 216477213699269425958895510365165649163 (0xA2DBFEAC22EE5B9D8524F6C29D38FD0B)
Полное имя : g:\!!! Releases\BBC.Planet.Dinosaur.BDRip.1080p\Planet.Dinosaur.Episode.6.The.Great.Survivors.BDRip.1080p.mkv
Формат : Matroska
Версия формата : Version 2
Размер файла : 1,66 Гбайт
Продолжительность : 28 м.
Общий поток : 8268 Кбит/сек
Дата кодирования : UTC 2012-06-17 15:36:38
Программа кодирования : mkvmerge v5.5.0 ('Healer') built on Apr 6 2012 21:43:24
Библиотека кодирования : libebml v1.2.3 + libmatroska v1.3.0
Видео
Идентификатор : 1
Формат : AVC
Формат/Информация : Advanced Video Codec
Профиль формата : [email protected]
Параметр CABAC формата : Да
Параметр ReFrames формата : 3 кадра
Идентификатор кодека : V_MPEG4/ISO/AVC
Продолжительность : 28 м.
Битрейт : 7500 Кбит/сек
Ширина : 1920 пикселей
Высота : 1080 пикселей
Соотношение сторон : 16:9
Частота кадров : 25,000 кадров/сек
Цветовое пространство : YUV
Субдискретизация насыщенности : 4:2:0
Битовая глубина : 8 бит
Тип развёртки : Прогрессивная
Бит/(Пиксели*Кадры) : 0.145
Размер потока : 1,47 Гбайт (89%)
Заголовок : Planet Dinosaur. Episode 6. The Great Survivors
Библиотека кодирования : x264 core 120 r2164 da19765
Настройки программы : cabac=1 / ref=4 / deblock=1:-3:-3 / analyse=0x3:0 / me=tesa / subme=11 / psy=1 / psy_rd=1.00:0.00 / mixed_ref=1 / me_range=16 / chroma_me=1 / trellis=2 / 8x8dct=1 / cqm=0 / deadzone=21,11 / fast_pskip=0 / chroma_qp_offset=-2 / threads=6 / sliced_threads=0 / nr=0 / decimate=1 / interlaced=0 / bluray_compat=0 / constrained_intra=0 / bframes=7 / b_pyramid=1 / b_adapt=2 / b_bias=0 / direct=3 / weightb=1 / open_gop=1 / weightp=2 / keyint=250 / keyint_min=25 / scenecut=40 / intra_refresh=0 / rc_lookahead=40 / rc=2pass / mbtree=1 / bitrate=7500 / ratetol=1.0 / qcomp=0.60 / qpmin=10 / qpmax=50 / qpstep=4 / cplxblur=20.0 / qblur=0.5 / vbv_maxrate=50000 / vbv_bufsize=50000 / nal_hrd=none / ip_ratio=1.40 / aq=1:0.80
Язык : Russian
Аудио #1
Идентификатор : 2
Формат : AC-3
Формат/Информация : Audio Coding 3
Расширение режима : CM (complete main)
Идентификатор кодека : A_AC3
Продолжительность : 28 м.
Вид битрейта : Постоянный
Битрейт : 384 Кбит/сек
Каналы : 6 каналов
Расположение каналов : Front: L C R, Side: L R, LFE
Частота : 48,0 КГц
Битовая глубина : 16 бит
Метод сжатия : С потерями
Размер потока : 78,9 Мбайт (5%)
Заголовок : Russian
Язык : Russian
Аудио #2
Идентификатор : 3
Формат : AC-3
Формат/Информация : Audio Coding 3
Расширение режима : CM (complete main)
Идентификатор кодека : A_AC3
Продолжительность : 28 м.
Вид битрейта : Постоянный
Битрейт : 384 Кбит/сек
Каналы : 2 канала
Расположение каналов : Front: L R
Частота : 48,0 КГц
Битовая глубина : 16 бит
Метод сжатия : С потерями
Размер потока : 78,9 Мбайт (5%)
Заголовок : English
Язык : English
Текст #1
Идентификатор : 4
Формат : UTF-8
Идентификатор кодека : S_TEXT/UTF8
Идентификатор кодека/Информация : UTF-8 Plain Text
Заголовок : Russian
Язык : Russian
Текст #2
Идентификатор : 5
Формат : UTF-8
Идентификатор кодека : S_TEXT/UTF8
Идентификатор кодека/Информация : UTF-8 Plain Text
Заголовок : English
Язык : English
Меню
00:00:00.000 : en:00:00:00.000
00:07:27.400 : en:00:07:27.400
00:14:00.120 : en:00:14:00.120
00:21:17.000 : en:00:21:17.000
Скриншоты

[Цитировать]



Показать сообщения:    

Текущее время: 04-Дек 07:04

Часовой пояс: UTC + 3


Вы не можете начинать темы
Вы не можете отвечать на сообщения
Вы не можете редактировать свои сообщения
Вы не можете удалять свои сообщения
Вы не можете голосовать в опросах
Вы не можете прикреплять файлы к сообщениям
Вы не можете скачивать файлы

!ВНИМАНИЕ!
Сайт не предоставляет электронные версии произведений, а занимается лишь коллекционированием и каталогизацией ссылок, присылаемых и публикуемых на форуме нашими читателями. Если вы являетесь правообладателем какого-либо представленного материала и не желаете, чтобы ссылка на него находилась в нашем каталоге, свяжитесь с нами, и мы незамедлительно удалим ее. Файлы для обмена на трекере предоставлены пользователями сайта, и администрация не несет ответственности за их содержание. Просьба не заливать файлы, защищенные авторскими правами, а также файлы нелегального содержания!