[ Сегодня идет свободное скачивание без начисления Download ]


Статистика раздачи
Нет
 
   
 
 
 
-Замерзшая планета / Frozen planet (7 серий из 7, включая дополнительные материалы о создании фильма) (2011) [H.264/1080p-LQ] BDRip- Русское название: Замерзшая планета
Оригинальное название: Frozen planet
Год выпуска: 2011
Жанр: Документальный
Описание фильма:
В этом путешествии мы отправимся на край земли. В места где экстремальные условия отрицают само существования жизни.
Однако жизнь здесь не просто существует, она процветает. Приспосабливаясь и изменяясь, приобретая удивительные формы, находя неожиданные способы существования, жизнь еще раз доказывает величие и грандиозность эволюции
Режиссер: Аластер Фовергилл
Продолжительность: 00:58:29 | 00:57:06 | 00:56:29 | 00:57:37 | 00:57:27 | 00:57:42 | 00:57:50 | 00:21:12
Перевод: Одноголосый закадровый
Автор перевода: Одноголосый закадровый, профессиональный AVO В.Курдов- -Формат: MKV
Видеокодек: MPEG-4 AVC/H.264
Битрейт видео: ~15000 kb/s, 25fps
Размер кадра: 1920 x 1080
Качество видео: BDRip
Аудиокодек: AC3 5.1
Битрейт аудио: 448 kb/s CBR
Аудио1: Русский 5.1 / 48 kHz / 448 kb/s / 16-bit
Аудио2: Английский 5.1 / 48 kHz / 448 kb/s / 16-bit

MediaInfo (тех. данные всех файлов одинаковые)

Общее
Уникальный идентификатор : 231380058707037264807274973712494154765 (0xAE122DA8FCD296DB9B9F636C3604D40D)
Полное имя : E:\Frozen Earth\E1 To the Ends of the Earth.mkv
Формат : Matroska
Версия формата : Version 2
Размер файла : 6,48 Гбайт
Продолжительность : 58 м.
Общий поток : 15,8 Мбит/сек
Дата кодирования : UTC 2012-03-06 05:32:11
Программа кодирования : mkvmerge v5.3.0 ('I could have danced') built on Feb 9 2012 10:38:07
Библиотека кодирования : libebml v1.2.3 + libmatroska v1.3.0
Видео
Идентификатор : 1
Формат : AVC
Формат/Информация : Advanced Video Codec
Профиль формата : High@L4.1
Параметр CABAC формата : Да
Параметр ReFrames формата : 4 кадра
Идентификатор кодека : V_MPEG4/ISO/AVC
Продолжительность : 58 м.
Битрейт : 15,0 Мбит/сек
Ширина : 1920 пикселей
Высота : 1080 пикселей
Соотношение сторон : 16:9
Частота кадров : 25,000 кадров/сек
Цветовое пространство : YUV
Субдискретизация насыщенности : 4:2:0
Битовая глубина : 8 бит
Тип развёртки : Прогрессивная
Бит/(Пиксели*Кадры) : 0.289
Размер потока : 5,98 Гбайт (92%)
Заголовок : Frozen Earth
Библиотека кодирования : x264 core 92 r1510 33d382a
Настройки программы : cabac=1 / ref=4 / deblock=1:-3:-3 / analyse=0x3:0x133 / me=hex / subme=9 / psy=1 / psy_rd=1.00:0.20 / mixed_ref=1 / me_range=16 / chroma_me=1 / trellis=2 / 8x8dct=1 / cqm=0 / deadzone=21,11 / fast_pskip=0 / chroma_qp_offset=-3 / threads=6 / sliced_threads=0 / nr=0 / decimate=0 / interlaced=0 / constrained_intra=0 / bframes=3 / b_pyramid=2 / b_adapt=2 / b_bias=0 / direct=3 / wpredb=1 / wpredp=2 / keyint=250 / keyint_min=25 / scenecut=40 / intra_refresh=0 / rc_lookahead=60 / rc=2pass / mbtree=1 / bitrate=15000 / ratetol=1.0 / qcomp=0.60 / qpmin=10 / qpmax=51 / qpstep=4 / cplxblur=20.0 / qblur=0.5 / vbv_maxrate=17500 / vbv_bufsize=14000 / ip_ratio=1.40 / aq=1:1.00 / nal_hrd=none
Язык : English
Default : Да
Forced : Нет
Аудио #1
Идентификатор : 2
Формат : AC-3
Формат/Информация : Audio Coding 3
Расширение режима : CM (complete main)
Идентификатор кодека : A_AC3
Продолжительность : 58 м.
Вид битрейта : Постоянный
Битрейт : 448 Кбит/сек
Каналы : 6 каналов
Расположение каналов : Front: L C R, Side: L R, LFE
Частота : 48,0 КГц
Битовая глубина : 16 бит
Метод сжатия : С потерями
Размер потока : 188 Мбайт (3%)
Язык : Russian
Default : Да
Forced : Нет
Аудио #2
Идентификатор : 3
Формат : AC-3
Формат/Информация : Audio Coding 3
Расширение режима : CM (complete main)
Идентификатор кодека : A_AC3
Продолжительность : 58 м.
Вид битрейта : Постоянный
Битрейт : 448 Кбит/сек
Каналы : 6 каналов
Расположение каналов : Front: L C R, Side: L R, LFE
Частота : 48,0 КГц
Битовая глубина : 16 бит
Метод сжатия : С потерями
Размер потока : 188 Мбайт (3%)
Язык : English
Default : Нет
Forced : Нет

Содержание

1.На краях Земли / To the Ends of the Earth: В этой серии Дэвид Аттенборо путешествует на край земли, увлекая зрителя в эту удивительную поездку через полярные области нашей планеты, Севера и Юга. Арктика и Антарктика являются самыми большими и наименее известными дикими местами. Это - волшебные ледяные миры, населенные самыми причудливыми и выносливыми существами на земле. Путешествие берёт своё начало с Северного полюса, поскольку солнце возвращается сюда только после шести месяцев темноты. Мы следуем за парой ухаживающих белых медведей, которые удивительно нежны друг с другом. Следующая наша остановка - гигантский ледниковый покров Гренландии, где водопады погружаются в сердце льда и колоссальные по размеру айсберги падают в море. Мы увидим, как киты горбачи присоединяются к самому большому сбору морских птиц на земле в богатых водах Аляски. Дальше мы путешествуем в Тайгу, которая содержит одну треть всех деревьев на земле. Здесь, стая из 25 самых больших в мире волков нападают на бизона. В другом конце нашей планеты - Антарктика, где пингвины изо всех сил пытаются избежать голодного морского льва, и стая дельфинов создают гигантские волны, чтобы очистить полыньи от ледяных плавучих льдин.
2. Весна / Spring: В полярные регионы пришла весна и после почти 5 месячного отсутствия появляется солнце, тепло и жизнь возвращается в этот волшебный мир льда. Замерзшие реки начинают ломаться и сотни тысяч тонн льда устремляются вниз по течению, пополняя воды Северного Ледовитого океана. Приток пресной воды ускоряет процесс таяния льдов. В скором времени площадь льдов размером с Австралию вообще исчезнут из Арктики. В Антарктиду прибыли пингвины, чтобы строить свои гнёзда. Мы также понаблюдаем за охотой медведицы со своими детёнышами.
3. Лето / Summer: В полярных регионах наступило лето, и солнце никогда не заходит. Представьте себе один непрерывный день, длиной в несколько месяцев. Некоторые полярные животные столкнуться с рядом проблем, когда их окружающий ледяной мир исчезнет. Другие должны использовать это особенное время благоразумно, ибо летнее изобилие продлится недолго. Лето только начинается, и увеличивающаяся энергия солнца создает удивительные ландшафты. Обширные ледяные просторы, некогда стоявшие неподвижно, вернулись к жизни…
4. Осень / Autumn
5. Зима / Winter
6. Последняя граница / The Last Frontier
7. На тонком льду / On Thin Ice
8. Наука на краю Земли / Science at the еnd of the Еarth (дополнительные материалы о создании и создателях фильма)
Скриншоты:

еще скриншоты

[Цитировать]



Показать сообщения:    

Текущее время: 08-Дек 23:13

Часовой пояс: UTC + 3


Вы не можете начинать темы
Вы не можете отвечать на сообщения
Вы не можете редактировать свои сообщения
Вы не можете удалять свои сообщения
Вы не можете голосовать в опросах
Вы не можете прикреплять файлы к сообщениям
Вы не можете скачивать файлы

!ВНИМАНИЕ!
Сайт не предоставляет электронные версии произведений, а занимается лишь коллекционированием и каталогизацией ссылок, присылаемых и публикуемых на форуме нашими читателями. Если вы являетесь правообладателем какого-либо представленного материала и не желаете, чтобы ссылка на него находилась в нашем каталоге, свяжитесь с нами, и мы незамедлительно удалим ее. Файлы для обмена на трекере предоставлены пользователями сайта, и администрация не несет ответственности за их содержание. Просьба не заливать файлы, защищенные авторскими правами, а также файлы нелегального содержания!