[ Сегодня идет свободное скачивание без начисления Download ]


Статистика раздачи
Нет
 
   
 
Top  
 
 
[sh]УГРО. Простые парни-4[/sh] -Год выпуска: 2012
Производство: Россия, ООО "Студия "Центр Кинопроизводства", ООО "Форвард-фильм"
Жанр: Криминал
Продолжительность: 00:45:58
Режиссёр: Марина Любакова, Михаил Галин-В ролях: Сергей Ланбамин, Инна Капнулина, Сергей Губанов, Виктор Бунаков, Роман Шумилов, Сергей Терещенко, Михаил Скачков, Дмитрий Прокофьев, Мария Федосова, Лариса Негреева-Цесляк, Татьяна Ухарова, Владимир Виноградов (II), Светлана Давыдова (II), Александра Живова, Николай Бендера, Мария Хижняк, Сергей Легостаев, Олег Руденко-Травин, Максим Фролов, Вячеслав Титов, Борис Полунин, Анастасия Кяро, Михаил Куряев, Павел Кусков-Описание: Главные герои – уже знакомые зрителям "сыскари" – Мазуров, Астафьев, Пронин, Фортуна, Игнатов. В четвертом сезоне они будут ловить преступника на живца, в качестве которого будет выступать вор в законе по кличке Боровец. Затем опера возьмутся за особое дело о пропаже контейнера с сигаретами стоимостью в несколько десятков миллионов рублей.-Доп.информация:
Любая реклама ОТСУТСТВУЕТ!-Сэмпл-Качество: SATRip
Формат: AVI
Видео кодек: XviD
Аудио кодек: MP3
Видео: 720x384 (1.88:1), 25 fps, XviD MPEG-4 ~1473 kbps avg, 0.21 bit/pixel
Аудио: 48 kHz, MPEG Layer 3, 2 ch, ~192.00 kbps avg

MI

ОбщееПолное имя : C:\2012\Ugro-4.2012.SATRip\Ugro-4.01.2012.SATRip.aviФормат : AVIФормат/Информация : Audio Video InterleaveРазмер файла : 550 МбайтПродолжительность : 45 м.Общий поток : 1672 Кбит/секПрограмма кодирования : VirtualDubMod 1.5.4.1 (build 2178/release)Библиотека кодирования : VirtualDubMod build 2178/release
ВидеоИдентификатор : 0Формат : MPEG-4 VisualПрофиль формата : Advanced Simple@L5Параметр BVOP формата : 1Параметр QPel формата : НетПараметр GMC формата : Без точки переходаПараметр матрицы формата : ВыборочнаяИдентификатор кодека : XVIDИдентификатор кодека/Подсказка : XviDПродолжительность : 45 м.Битрейт : 1473 Кбит/секШирина : 720 пикселейВысота : 384 пикселяСоотношение сторон : 1,875Частота кадров : 25,000 кадров/секЦветовое пространство : YUVСубдискретизация насыщенности : 4:2:0Битовая глубина : 8 битТип развёртки : ПрогрессивнаяМетод сжатия : С потерямиБит/(Пиксели*Кадры) : 0.213Размер потока : 484 Мбайт (88%)Библиотека кодирования : XviD 64
АудиоИдентификатор : 1Формат : MPEG AudioВерсия формата : Version 1Профиль формата : Layer 3Режим : Joint stereoРасширение режима : MS StereoИдентификатор кодека : 55Идентификатор кодека/Подсказка : MP3Продолжительность : 45 м.Вид битрейта : ПостоянныйБитрейт : 192 Кбит/секКаналы : 2 каналаЧастота : 48,0 КГцМетод сжатия : С потерямиРазмер потока : 63,1 Мбайт (11%)Выравнивание : Соединение по промежуткамПродолжительность промежутка : 80 мс. (2,00 видеокадра)Время предзагрузки промежутка : 504 мс.Библиотека кодирования : LAME3.97Настройки программы : -m j -V 4 -q 2 -lowpass 18.6 -b 192

Скриншоты

Внимание! Раздача ведётся путём добавления новых серий. Описание обновления торрента:

Внимание! Раздача ведётся путём добавления новых серий; при каждом добавлении создётся новый торрент. Чтобы начать докачку новой серии, пользователям необходимо сделать следующее:
(1) остановить скачивание,
(2) удалить старый торрент у себя из клиента (старые серии удалять не надо),
(3) скачать новый торрент и запустить его у себя в клиенте вместо старого, при этом указать клиенту путь в старую папку куда и должно происходить скачивание новых серий.
Ваш клиент при этом должен произвести хеширование (проверку) старой папки (если не производит сам - помогите ему сделать это), и будет докачивать только те серии которых у вас ещё нет. Старые серии при этом не удаляются, а продолжают раздаваться!
Eсли вы уже удалили старые серии, то предотвратить повторную закачку старых серий можно, отжав галочку в соответсвующих местах при запуске нового торрента. По возможности, желательно не удалять старые серии как можно дольше чтобы релизёр не столько продолжал раздавать старые серии, а смог сконцентрироваться на новых

[Цитировать]

Топик был перенесен из форума Отечественные сериалы в форум Архив
D-r Woland_kz



Показать сообщения:    

Текущее время: 23-Мар 08:19

Часовой пояс: UTC + 6


Вы не можете начинать темы
Вы не можете отвечать на сообщения
Вы не можете редактировать свои сообщения
Вы не можете удалять свои сообщения
Вы не можете голосовать в опросах
Вы не можете прикреплять файлы к сообщениям
Вы не можете скачивать файлы

!ВНИМАНИЕ!
Сайт не предоставляет электронные версии произведений, а занимается лишь коллекционированием и каталогизацией ссылок, присылаемых и публикуемых на форуме нашими читателями. Если вы являетесь правообладателем какого-либо представленного материала и не желаете, чтобы ссылка на него находилась в нашем каталоге, свяжитесь с нами, и мы незамедлительно удалим ее. Файлы для обмена на трекере предоставлены пользователями сайта, и администрация не несет ответственности за их содержание. Просьба не заливать файлы, защищенные авторскими правами, а также файлы нелегального содержания!