[ Сегодня идет свободное скачивание без начисления Download ]


Статистика раздачи
Нет
 
   
 
Top  
 
 
[sh]Собачья работа[/sh]- -Год выпуска: 2012
Дистрибьютор: «Компания WWW.RECORDS»
Производство: "Art Pictures Media"
Жанр: криминал, детектив
Продолжительность: 360 мин.
Субтитры: нет-Режиссёр: Алексей Рудаков-В ролях:
Владимир Епифанцев, Ирина Лачина, Светлана Немоляева, Михаил Полицеймако, Александр Стриженов, Галина Звягинцева, Игорь Пазыч, Наталия Житкова, Сергей Фролов, Елена Дробышева, Анатолий Журавлёв, Иван Рудаков, Александр Берда, Алексей Ильин, Григорий Калинин, Вадим Утенков, Марианна Шульц, Дмитрий Блохин, Тамара Череповская, Дмитрий Митин, Лаура Кеосаян, Олег Чудницов, Сергей Беляев, Юрий Васильев (II), Александр Пугачев (II), Полина Шулика, Денис Варенов, Николай Круглов, Наталья Батрак, Никита Яшин-Описание:
Капитан полиции кинолог Илья Смагин во время спецоперации теряет напарника и друга — пса Рагдая, одного из лучших «поисковиков» в кинологической службе.
Смагину и его коллегам предстоит найти и обезвредить банду наркоторговцев и выяснить, где они прячут товар.
Смагин не верит в то, что ему удастся найти собаку, равную Рагдаю. В это время ему передают письмо от коллеги, убитого во время той же операции. Предчувствуя свою гибель, коллега просит Смагина позаботиться о его собаке Луше. Луша тоскует по умершему хозяину и отказывается от пищи. Смагин берет Лушу к себе.
У Луши оказывается феноменальное чутье, но при этом очень непростой характер.-Доп. информация:

При помощи DVD Remake Pro для удобства просмотра удалены заставки, предупреждения, реклама
Исходник поделен на 2 DVD5 по 4 серии на каждом диске
Навигация диска сохранена, нерабочие кнопки заблокированы
Общее сжатие - 0 %.-

Софт

DVD Remake Pro
-Возраст: 16+-Качество: 2 х DVD5
Формат: DVD-Video


Видео: PAL 16:9 (720x576) VBR, Auto Letterboxed
Аудио: Russian (Dolby AC3, 2 ch) 96 kbps
-

MediaInfo

Общее
Полное имя : F:\Раздачи на TORRENTS.ru\Собачья работа (8 серий из 8) 2 х DVD5\DVD 2\VIDEO_TS\VTS_01_2.VOB
Формат : MPEG-PS
Размер файла : 1024 Мбайт
Продолжительность : 3 м. 50 с.
Режим общего битрейта : Переменный
Общий поток : 37,3 Мбит/сек
Видео
Идентификатор : 224 (0xE0)
Формат : MPEG Video
Версия формата : Version 2
Профиль формата : Main@Main
Параметр BVOP формата : Да
Параметр матрицы формата : Выборочная
Параметр GOP формата : M=3, N=15
Продолжительность : 3 м. 50 с.
Вид битрейта : Переменный
Битрейт : 36,5 Мбит/сек
Максимальный битрейт : 8100 Кбит/сек
Ширина : 720 пикселей
Высота : 576 пикселей
Соотношение сторон : 16:9
Частота кадров : 25,000 кадров/сек
Стандарт вещания : PAL
Цветовое пространство : YUV
Субдискретизация насыщенности : 4:2:0
Битовая глубина : 8 бит
Тип развёртки : Прогрессивная
Метод сжатия : С потерями
Бит/(Пиксели*Кадры) : 3.517
Размер потока : 1001 Мбайт (98%)
Аудио
Идентификатор : 189 (0xBD)-128 (0x80)
Формат : AC-3
Формат/Информация : Audio Coding 3
Расширение режима : CM (complete main)
Режим смешивания : DVD-Video
Продолжительность : 3 м. 50 с.
Вид битрейта : Постоянный
Битрейт : 96,0 Кбит/сек
Каналы : 2 канала
Расположение каналов : Front: L R
Частота : 48,0 КГц
Битовая глубина : 16 бит
Метод сжатия : С потерями
Задержка видео : -536 мс.
Размер потока : 2,64 Мбайт (0%)
Меню

-

DVDInfo DVD1

Title: DVD 1
Size: 3.72 Gb ( 3 898 234,00 KBytes ) - DVD-5
Enabled regions: 1, 2, 3, 4, 5, 6, 7, 8
VTS_01 :
Play Length: 00:44:01+00:44:51+00:44:41+00:44:31+00:00:03+00:00:03+00:00:03+00:00:03
Video: PAL 16:9 (720x576) VBR, Auto Letterboxed
Audio:
Russian (Dolby AC3, 2 ch)
* Menus Information *
VIDEO_TS Menu
Video:
PAL 16:9 (720x576) VBR
Auto Letterboxed
Audio:
Not specified (Dolby AC3, 2 ch)
English Language Unit :
Title Menu
VTS_01 Menu
Video:
PAL 16:9 (720x576) VBR
Auto Letterboxed
Audio:
Not specified (Dolby AC3, 2 ch)
English Language Unit :
Root Menu
Audio #1: AC3, 2/0 (L,R) ch, 96 kbps, Delay -7 mSec

DVDInfo DVD2

Title: DVD 2
Size: 3.69 Gb ( 3 870 926,00 KBytes ) - DVD-5
Enabled regions: 1, 2, 3, 4, 5, 6, 7, 8
VTS_01 :
Play Length: 00:00:03+00:00:03+00:00:03+00:00:03+00:43:41+00:44:31+00:44:36+00:44:01
Video: PAL 16:9 (720x576) VBR, Auto Letterboxed
Audio:
Russian (Dolby AC3, 2 ch)
* Menus Information *
VIDEO_TS Menu
Video:
PAL 16:9 (720x576) VBR
Auto Letterboxed
Audio:
Not specified (Dolby AC3, 2 ch)
English Language Unit :
Title Menu
VTS_01 Menu
Video:
PAL 16:9 (720x576) VBR
Auto Letterboxed
Audio:
Not specified (Dolby AC3, 2 ch)
English Language Unit :
Root Menu
Audio #1: AC3, 2/0 (L,R) ch, 96 kbps, Delay -7 mSec

-

Скриншоты меню


-

Скриншоты сериала DVD1



Скриншоты сериала DVD2



-Раздаю до первых 5-ти скачавших, на раздачи не возвращаюсь...-

[Цитировать]



Показать сообщения:    

Текущее время: 11-Дек 03:18

Часовой пояс: UTC + 3


Вы не можете начинать темы
Вы не можете отвечать на сообщения
Вы не можете редактировать свои сообщения
Вы не можете удалять свои сообщения
Вы не можете голосовать в опросах
Вы не можете прикреплять файлы к сообщениям
Вы не можете скачивать файлы

!ВНИМАНИЕ!
Сайт не предоставляет электронные версии произведений, а занимается лишь коллекционированием и каталогизацией ссылок, присылаемых и публикуемых на форуме нашими читателями. Если вы являетесь правообладателем какого-либо представленного материала и не желаете, чтобы ссылка на него находилась в нашем каталоге, свяжитесь с нами, и мы незамедлительно удалим ее. Файлы для обмена на трекере предоставлены пользователями сайта, и администрация не несет ответственности за их содержание. Просьба не заливать файлы, защищенные авторскими правами, а также файлы нелегального содержания!