[ Сегодня идет свободное скачивание без начисления Download ]


Статистика раздачи
Скачал: [ 2 ]
 
   
 
Top  
 
 
Успеть до полуночи / Midnight Run
«A tough bounty hunter. A sensitive criminal»
Год выпуска: 1988
Страна: США
Производство: City Light Films, Universal Pictures
Жанр: Боевик, комедия, триллер, криминал, приключения
Режиссёр: Мартин Брест
В ролях: Роберт Де Ниро, Чарльз Гродин, Яфет Котто, Джон Эштон, Дэннис Фарина, Джо Пантолиано, Ричард Фороньи, Роберт Миранда, Джек Кехо, Уэнди Филлипс
Перевод: Профессиональный (многоголосый, закадровый) [Первый канал], профессиональный (многоголосый, закадровый) [Юниверсал Пикчерс Рус], профессиональный (многоголосый, закадровый) [Премьер]
Субтитры: Отсутствуют
Описание: Джек Уолш — опытный профессионал, мастер своего дела. Когда-то он служил в полиции, а теперь занимается частным сыском. Его специализация — операции по поимке беглых преступников. В этот раз Джек занят поисками Джонатана Мардукаса, известного под кличкой «Герцог». Мардукас, скромный и интеллигентный бухгалтер, умудрился украсть у мафии 15 миллионов долларов. По договоренности Джек должен поймать «Герцога», заковать в наручники и доставить на самолете из Нью-Йорка в Лос-Анджелес в условленный срок. За это Уолш получит целых сто тысяч долларов.
Для искушенного «охотника за головами» подобное задание — сущий пустяк. Но Джек не учел, что помимо него за Мардукасом активно охотятся гангстеры, ФБР и вероломный коллега-конкурент. Более того, Мардукас панически боится летать и Джеку предстоит везти Герцога через всю Америку.

Качество: BDRip
Продолжительность: 02:06:19
Формат: AVI
Видео кодек: XviD
Аудио кодек: AС3
Видео: 720x384 (1.85:1), 23.976 fps, XviD ~ 1 877 kbps avg, 0.290 bit/pixel
Аудио#1: AC3, 48 kHz, 2 ch, ~ 192.00 kbps avg | Профессиональный (многоголосый, закадровый) [Первый канал]
Аудио#2: AC3, 48 kHz, 2 ch, ~ 192.00 kbps avg | Профессиональный (многоголосый, закадровый) [Юниверсал Пикчерс Рус]
Аудио#3: AC3, 48 kHz, 2 ch, ~ 192.00 kbps avg | Профессиональный (многоголосый, закадровый) [Премьер]

MI

General
Complete name                  : Midnight.Run.1988.BDRip.avi
Format                         : AVI
Format/Info                    : Audio Video Interleave
Format profile                 : OpenDML
File size                      : 2.19 GiB
Duration                       : 2 h 6 min
Overall bit rate               : 2 477 kb/s
Writing application            : VirtualDubMod 1.5.10.2 (build 2540/release)
Writing library                : VirtualDubMod build 2540/release
Video
ID                             : 0
Format                         : MPEG-4 Visual
Format profile                 : Advanced Simple@L5
Format settings, BVOP          : 1
Format settings, QPel          : No
Format settings, GMC           : No warppoints
Format settings, Matrix        : Custom
Codec ID                       : XVID
Codec ID/Hint                  : XviD
Duration                       : 2 h 6 min
Bit rate                       : 1 877 kb/s
Width                          : 704 pixels
Height                         : 384 pixels
Display aspect ratio           : 1.85:1
Frame rate                     : 23.976 (24000/1001) FPS
Color space                    : YUV
Chroma subsampling             : 4:2:0
Bit depth                      : 8 bits
Scan type                      : Progressive
Compression mode               : Lossy
Bits/(Pixel*Frame)             : 0.290
Stream size                    : 1.66 GiB (76%)
Writing library                : XviD 65
Audio #1
ID                             : 1
Format                         : AC-3
Format/Info                    : Audio Coding 3
Format settings, Endianness    : Big
Codec ID                       : 2000
Duration                       : 2 h 6 min
Bit rate mode                  : Constant
Bit rate                       : 192 kb/s
Channel(s)                     : 2 channels
Channel positions              : Front: L R
Sampling rate                  : 48.0 kHz
Frame rate                     : 31.250 FPS (1536 spf)
Bit depth                      : 16 bits
Compression mode               : Lossy
Stream size                    : 173 MiB (8%)
Alignment                      : Split accross interleaves
Interleave, duration           : 42  ms (1.00 video frame)
Interleave, preload duration   : 500  ms
Service kind                   : Complete Main
Audio #2
ID                             : 2
Format                         : AC-3
Format/Info                    : Audio Coding 3
Format settings, Endianness    : Big
Codec ID                       : 2000
Duration                       : 2 h 6 min
Bit rate mode                  : Constant
Bit rate                       : 192 kb/s
Channel(s)                     : 2 channels
Channel positions              : Front: L R
Sampling rate                  : 48.0 kHz
Frame rate                     : 31.250 FPS (1536 spf)
Bit depth                      : 16 bits
Compression mode               : Lossy
Stream size                    : 173 MiB (8%)
Alignment                      : Split accross interleaves
Interleave, duration           : 42  ms (1.00 video frame)
Interleave, preload duration   : 500  ms
Service kind                   : Complete Main
Audio #3
ID                             : 3
Format                         : AC-3
Format/Info                    : Audio Coding 3
Format settings, Endianness    : Big
Codec ID                       : 2000
Duration                       : 2 h 6 min
Bit rate mode                  : Constant
Bit rate                       : 192 kb/s
Channel(s)                     : 2 channels
Channel positions              : Front: L R
Sampling rate                  : 48.0 kHz
Frame rate                     : 31.250 FPS (1536 spf)
Bit depth                      : 16 bits
Compression mode               : Lossy
Stream size                    : 173 MiB (8%)
Alignment                      : Split accross interleaves
Interleave, duration           : 42  ms (1.00 video frame)
Interleave, preload duration   : 500  ms
Service kind                   : Complete Main

Скриншоты


[Цитировать]

Топик был перенесен из форума Комедия в форум Боевик
Viktor1952

Топик был перенесен из форума Боевик в форум Классика мирового кинематографа
Viktor1952



Показать сообщения:    

Текущее время: 25-Июн 16:38

Часовой пояс: UTC + 6


Вы не можете начинать темы
Вы не можете отвечать на сообщения
Вы не можете редактировать свои сообщения
Вы не можете удалять свои сообщения
Вы не можете голосовать в опросах
Вы не можете прикреплять файлы к сообщениям
Вы не можете скачивать файлы

!ВНИМАНИЕ!
Сайт не предоставляет электронные версии произведений, а занимается лишь коллекционированием и каталогизацией ссылок, присылаемых и публикуемых на форуме нашими читателями. Если вы являетесь правообладателем какого-либо представленного материала и не желаете, чтобы ссылка на него находилась в нашем каталоге, свяжитесь с нами, и мы незамедлительно удалим ее. Файлы для обмена на трекере предоставлены пользователями сайта, и администрация не несет ответственности за их содержание. Просьба не заливать файлы, защищенные авторскими правами, а также файлы нелегального содержания!