[ Сегодня идет свободное скачивание без начисления Download ]


Статистика раздачи
Нет
 
   
 
Top  
 
 
-[sh]Братаны 3[/sh] -Страна: Россия
Студия: Телекомпания "Мостелефильм"
Жанр: боевик, криминал
Год выпуска: 2012
Дата выхода DVD: 15 мая 2012, «Монолит»
Продолжительность: 1462 мин.
Перевод: Оригинал [Лицензия]
Cубтитры: украинские
Оригинальная аудиодорожка: русский-Режиссер: Сергей Артемович-В ролях: Алексей Кравченко, Сергей Селин, Антон Хабаров, Анна Чиповская, Юрий Беляев, Николай Добрынин, Даниил Воробьев, Елена Гольянова, Эдуард Галеев, Константин Демидов-Описание: Алекс и Ленчик готовятся отметить день ВДВ, но внезапно получают сообщение от Сереги о том, что его жена Светлана в беде. Прибыв в Озерскую, где отдыхала Светлана, друзья узнают, что она бесследно исчезла. Братаны выходят на след местного авторитета Мартынова. Но на руках у Мартынова серьезные «козыри»: он может творить на «своей» территории всё, что захочет — и бандиты, и мэр, и полиция пляшут под его дудку уже много лет. Братаны вступают в неравную схватку, хотя возможностей выйти победителями у них остается все меньше и меньше. Но в лице заместителя Макара Вадима Рощина братаны находят верного друга.-Бонусы: нет- -Качество: 2xDVD9 R5
Формат: DVD-Video
Видео кодек: MPEG2
Аудио кодек: AC3
Видео: PAL 4:3 (352x288(7.664)) MPEG Video, 25,000 кадр/сек, 9200 Кбит/сек
Аудио: Russian (Dolby AC3, 2 ch) 128 Кбит/сек, 48,0 КГц--

DVDInfo DVD1

Title: DVD1
Size: 7.59 Gb ( 7 959 614,00 KBytes ) - DVD-9
Enabled regions: 1, 2, 3, 4, 5, 6, 7, 8
VTS_01 :
Play Length: 00:46:29+00:44:01+00:45:15+00:44:57+00:45:43+00:45:32+00:46:28+00:46:27+00:46:37+00:45:30+00:46:22+00:45:31+00:46:36+00:44:28+00:46:08+00:44:52
Video: PAL 4:3 (352x288) VBR
Audio:
Russian (Dolby AC3, 2 ch)
Subtitles:
Ukrainian
VTS_02 :
Play Length: 00:00:15+00:00:10
Video: PAL 4:3 (720x576) VBR
Audio:
Russian (Dolby AC3, 5 ch)
* Menus Information *
VIDEO_TS Menu
Video:
PAL 4:3 (720x576) VBR
Audio:
Not specified (Dolby AC3, 2 ch)
English Language Unit :
Title Menu
VTS_01 Menu
Video:
PAL 4:3 (720x576) VBR
Audio:
Not specified (Dolby AC3, 2 ch)
English Language Unit :
Root Menu
VTS_02 Menu
Video:
NTSC 4:3 (720x480) VBR
Auto Pan&Scan, Auto Letterboxed
English Language Unit :
Root Menu

DVDInfo DVD2

Title: DVD2
Size: 7.54 Gb ( 7 904 478,00 KBytes ) - DVD-9
Enabled regions: 1, 2, 3, 4, 5, 6, 7, 8
VTS_01 :
Play Length: 03:45:40+03:45:37+04:27:50
Video: PAL 4:3 (352x288) VBR
Audio:
Russian (Dolby AC3, 2 ch)
VTS_02 :
Play Length: 00:00:15+00:00:10+00:00:12
Video: PAL 4:3 (720x576) VBR
Audio:
Russian (Dolby AC3, 6 ch)
* Menus Information *
VIDEO_TS Menu
Video:
PAL 4:3 (720x576) VBR
Letterboxed
Audio:
Not specified (Dolby AC3, 2 ch)
English Language Unit :
Title Menu
VTS_01 Menu
Video:
PAL 4:3 (720x576) VBR
Audio:
Not specified (Dolby AC3, 2 ch)
English Language Unit :
Root Menu
VTS_02 Menu
Video:
NTSC 4:3 (720x480) VBR
Auto Pan&Scan, Auto Letterboxed
English Language Unit :
Root Menu

MediaInfo

Общее
Полное имя : J:\Новинки 2012\Bratany.3.2012.2xDVD9\DVD1\VIDEO_TS\VTS_01_1.VOB
Формат : MPEG-PS
Размер файла : 1024 Мбайт
Продолжительность : 7 м. 10 с.
Режим общего битрейта : Переменный
Общий поток : 19,9 Мбит/сек
Библиотека кодирования : encoded by TMPGEnc 4.0 XPress Version. 4.7.7.307
Видео
Идентификатор : 224 (0xE0)
Формат : MPEG Video
Версия формата : Version 2
Профиль формата : Main@Main
Параметр BVOP формата : Да
Параметр матрицы формата : Выборочная
Параметр GOP формата : Variable
Продолжительность : 7 м. 10 с.
Вид битрейта : Переменный
Битрейт : 19,4 Мбит/сек
Максимальный битрейт : 9200 Кбит/сек
Ширина : 352 пикселя
Высота : 288 пикселей
Соотношение сторон : 4:3
Частота кадров : 25,000 кадров/сек
Стандарт вещания : PAL
Цветовое пространство : YUV
Субдискретизация насыщенности : 4:2:0
Битовая глубина : 8 бит
Тип развёртки : Прогрессивная
Метод сжатия : С потерями
Бит/(Пиксели*Кадры) : 7.664
Размер потока : 997 Мбайт (97%)
Выравнивание : encoded by TMPGEnc 4.0 XPress Version. 4.7.7.307
Заголовок : TMPGEnc XPress
Программа кодирования : 4.7.7.307
Библиотека кодирования : TMPGEnc XPress 4.7.7.307
Основные цвета : BT.601 PAL
Характеристики трансфера : BT.470 System B, BT.470 System G
Коэффициенты матрицы : BT.601
Аудио
Идентификатор : 189 (0xBD)-128 (0x80)
Формат : AC-3
Формат/Информация : Audio Coding 3
Расширение режима : CM (complete main)
Параметр Endianness формата : Big
Режим смешивания : DVD-Video
Продолжительность : 7 м. 10 с.
Вид битрейта : Постоянный
Битрейт : 128 Кбит/сек
Каналы : 2 канала
Расположение каналов : Front: L R
Частота : 48,0 КГц
Битовая глубина : 16 бит
Метод сжатия : С потерями
Размер потока : 6,57 Мбайт (1%)

Скриншоты меню

Скриншоты сериала


-
-Раздача от группы:

[Цитировать]



Показать сообщения:    

Текущее время: 07-Дек 13:42

Часовой пояс: UTC + 3


Вы не можете начинать темы
Вы не можете отвечать на сообщения
Вы не можете редактировать свои сообщения
Вы не можете удалять свои сообщения
Вы не можете голосовать в опросах
Вы не можете прикреплять файлы к сообщениям
Вы не можете скачивать файлы

!ВНИМАНИЕ!
Сайт не предоставляет электронные версии произведений, а занимается лишь коллекционированием и каталогизацией ссылок, присылаемых и публикуемых на форуме нашими читателями. Если вы являетесь правообладателем какого-либо представленного материала и не желаете, чтобы ссылка на него находилась в нашем каталоге, свяжитесь с нами, и мы незамедлительно удалим ее. Файлы для обмена на трекере предоставлены пользователями сайта, и администрация не несет ответственности за их содержание. Просьба не заливать файлы, защищенные авторскими правами, а также файлы нелегального содержания!