[ Сегодня идет свободное скачивание без начисления Download ]


Статистика раздачи
Нет
 
   
 
Top  
 
 
-[sh]Синдром дракона[/sh] -Страна: Россия, Украина
Студия: RUmedia, ДАНИАН-ФИЛЬМ, АВРОРА
Жанр: триллер, детектив
Год выпуска: 2012
Мировая премьера: 14 октября 2012
Российская премьера: 14 октября 2012
Дата выхода DVD: 13 декабря 2012, «Мистерия Звука»
Продолжительность: 620 мин.
Перевод: Оригинал [Лицензия]
Cубтитры: нет
Оригинальная аудиодорожка: русский-Режиссер: Николай Хомерики-В ролях: Дмитрий Муляр, Андрей Мерзликин, Лев Борисов, Екатерина Климова, Леонид Бичевин, Кристина Асмус, Карина Андоленко, Алексей Гуськов, Юрий Цурило, Алексей Серебряков...-Описание: Сюжет фильма основан на реальных фактах, связанных с обнаружением в 1993 году в небольшом украинском городе Кировограде огромной коллекции древностей, стоимостью около миллиарда долларов, принадлежавшей обычному электрику Александру Ильину, а также на материалах расследований, гипотезах и домыслах, появившихся по этому поводу за пятнадцать лет.
2008 год. Одесса. Таможенники по анонимному звонку задерживают человека, в багаже которого обнаруживают редчайшую книгу — никому не известный экземпляр «Морского устава» Петра Первого. ФСБ начинает расследование, которое сопровождается рядом таинственных и необъяснимых смертей.
1953 год. Группа высокопоставленных чинов армии, партии и спецслужб решает в смутное для страны время, собрать все награбленные в ходе «официальных репрессий» и вывезенные из побежденной Германии сокровища в одном тихом месте. Хранителями бесценной коллекции становятся молодой разведчик Терехов и освобожденный из тюрьмы коллекционер Авдеев.
-Бонусы: нет- -Релиз группы: -Качество: 2xDVD9 R5
Формат: DVD-Video
Видео кодек: MPEG2
Аудио кодек: AC3
Видео: PAL 16:9 (720x576(0.283)) MPEG Video, 25,000 кадр/сек, 2930 Кбит/сек
Аудио: Russian (Dolby AC3, 2 ch) 192 Кбит/сек, 48,0 КГц--

DVDInfo DVD1

Title: DVD1
Size: 7.44 Gb ( 7 803 750,00 KBytes ) - DVD-9
Enabled regions: 1, 2, 3, 4, 5, 6, 7, 8
VTS_01 :
Play Length: 00:00:16+05:23:55
Video: PAL 16:9 (720x576) VBR, Auto Letterboxed
Audio:
Russian (Dolby AC3, 2 ch)
* Menus Information *
VIDEO_TS Menu
Video:
NTSC 4:3 (720x480) VBR
Auto Pan&Scan, Auto Letterboxed
Russian Language Unit :
Title Menu
VTS_01 Menu
Video:
PAL 16:9 (720x576) VBR
Auto Letterboxed
Audio:
Not specified (Dolby AC3, 2 ch)
Russian Language Unit :
Root Menu
Chapter (PTT) Menu

DVDInfo DVD2

Title: DVD2
Size: 7.53 Gb ( 7 898 512,00 KBytes ) - DVD-9
Enabled regions: 1, 2, 3, 4, 5, 6, 7, 8
VTS_01 :
Play Length: 00:00:16+05:49:33
Video: PAL 16:9 (720x576) VBR, Auto Letterboxed
Audio:
Russian (Dolby AC3, 2 ch)
* Menus Information *
VIDEO_TS Menu
Video:
NTSC 4:3 (720x480) VBR
Auto Pan&Scan, Auto Letterboxed
Russian Language Unit :
Title Menu
VTS_01 Menu
Video:
PAL 16:9 (720x576) VBR
Auto Letterboxed
Audio:
Not specified (Dolby AC3, 2 ch)
Russian Language Unit :
Root Menu
Chapter (PTT) Menu

MediaInfo

Общее
Полное имя : J:\Новинки 2012\Sindrom.drakona.2012.2xDVD9\DVD1\VIDEO_TS\VTS_01_6.VOB
Формат : MPEG-PS
Размер файла : 1024 Мбайт
Продолжительность : 44 м.
Режим общего битрейта : Переменный
Общий поток : 3186 Кбит/сек
Видео
Идентификатор : 224 (0xE0)
Формат : MPEG Video
Версия формата : Version 2
Профиль формата : [email protected]
Параметр BVOP формата : Да
Параметр матрицы формата : Выборочная
Параметр GOP формата : M=3, N=15
Продолжительность : 44 м.
Вид битрейта : Переменный
Битрейт : 2930 Кбит/сек
Максимальный битрейт : 8500 Кбит/сек
Ширина : 720 пикселей
Высота : 576 пикселей
Соотношение сторон : 16:9
Частота кадров : 25,000 кадров/сек
Стандарт вещания : PAL
Цветовое пространство : YUV
Субдискретизация насыщенности : 4:2:0
Битовая глубина : 8 бит
Тип развёртки : Чересстрочная
Порядок развёртки : Верхнее поле первое
Метод сжатия : С потерями
Бит/(Пиксели*Кадры) : 0.283
Размер потока : 942 Мбайт (92%)
Аудио
Идентификатор : 189 (0xBD)-128 (0x80)
Формат : AC-3
Формат/Информация : Audio Coding 3
Расширение режима : CM (complete main)
Параметр Endianness формата : Big
Режим смешивания : DVD-Video
Продолжительность : 44 м.
Вид битрейта : Постоянный
Битрейт : 192 Кбит/сек
Каналы : 2 канала
Расположение каналов : Front: L R
Частота : 48,0 КГц
Битовая глубина : 16 бит
Метод сжатия : С потерями
Задержка видео : -800 мс.
Размер потока : 61,7 Мбайт (6%)

Скриншоты меню

Скриншоты сериала


-
-Раздача от группы:

[Цитировать]



Показать сообщения:    

Текущее время: 06-Дек 22:58

Часовой пояс: UTC + 3


Вы не можете начинать темы
Вы не можете отвечать на сообщения
Вы не можете редактировать свои сообщения
Вы не можете удалять свои сообщения
Вы не можете голосовать в опросах
Вы не можете прикреплять файлы к сообщениям
Вы не можете скачивать файлы

!ВНИМАНИЕ!
Сайт не предоставляет электронные версии произведений, а занимается лишь коллекционированием и каталогизацией ссылок, присылаемых и публикуемых на форуме нашими читателями. Если вы являетесь правообладателем какого-либо представленного материала и не желаете, чтобы ссылка на него находилась в нашем каталоге, свяжитесь с нами, и мы незамедлительно удалим ее. Файлы для обмена на трекере предоставлены пользователями сайта, и администрация не несет ответственности за их содержание. Просьба не заливать файлы, защищенные авторскими правами, а также файлы нелегального содержания!