[ Сегодня идет свободное скачивание без начисления Download ]


Статистика раздачи
Скачал: [ 11 ]
 
   
 
Top  
 
 
Танец мотылька [1-4 из 4] (2017) WEB-DLRip Оригинальное название: Танец мотылька
Год выпуска: 2017
Жанр: Мелодрама
Выпущено: Украина, «Sister’s production»
Режиссер: Бата Недич
В ролях: Диана Розовлян, Александр Попов (IV), Анна Кошмал, Анастасия Карпенко, Николай Боклан, Марк Дробот, Наталия Васько, Людмила Рымарь
О фильме: Карина мечтает о танцевальной карьере, но работает фабричной швеёй в маленьком шахтерском городе Рудогорске, где самой большой перспективой для героини является замужество с другом детства Геной. Дочери пожилого шахтера, которая живет под гнетом злобной мачехи и в тени сводной сестры, почти невозможно осуществить свою амбициозную мечту. Владелец шахты, где работает отец Карины, устраивает концерт в честь юбилея предприятия и судьба дарит девушке шанс: в город приезжает столичный диджей Ник и танцевальный ансамбль "Цирцея". Главный хореограф ансамбля замечает талант Карины и дает ей роль в своем танцевальном шоу. Девушка обретает не только карьерные перспективы, но и любовь диджея. Однако планы героини внезапно рушатся после взрыва на шахте, где работает ее отец. Карине предстоит пройти долгий путь, чтобы осуществить мечту всей своей жизни и разыскать диджея Ника...
Качество: WEB-DLRip
Видео: XviD, ~ 1600 Кбит/с, 720x400
Аудио: AC3, 2 ch, 192 Кбит/с
Продолжительность: 4 х ~ 00:45:00
Язык: Русский

MediaInfo:

Общее
Полное имя : D:\моё видио\Tanec.motilka.2017.WEB-DLRip.Files-x\01.Tanec.motilka.2017.WEB-DLRip.Files-x.avi
Формат : AVI
Формат/Информация : Audio Video Interleave
Размер файла : 598 Мбайт
Продолжительность : 47 м.
Общий поток : 1742 Кбит/сек
Программа кодирования : VirtualDubMod 1.5.10.3 | www.virtualdub-fr.org || (build 2550/release)
Библиотека кодирования : VirtualDubMod build 2550/release
Видео
Идентификатор : 0
Формат : MPEG-4 Visual
Профиль формата : Advanced Simple@L5
Параметр BVOP формата : 1
Параметр QPel формата : Нет
Параметр GMC формата : Без точки перехода
Параметр матрицы формата : Выборочная
Идентификатор кодека : XVID
Идентификатор кодека/Подсказка : XviD
Продолжительность : 47 м.
Битрейт : 1540 Кбит/сек
Ширина : 720 пикселей
Высота : 400 пикселей
Соотношение сторон : 16:9
Частота кадров : 25,000 кадров/сек
Цветовое пространство : YUV
Субдискретизация насыщенности : 4:2:0
Битовая глубина : 8 бит
Тип развёртки : Прогрессивная
Метод сжатия : С потерями
Бит/(Пиксели*Кадры) : 0.214
Размер потока : 528 Мбайт (88%)
Библиотека кодирования : XviD 73
Аудио
Идентификатор : 1
Формат : AC-3
Формат/Информация : Audio Coding 3
Расширение режима : CM (complete main)
Параметр Endianness формата : Big
Идентификатор кодека : 2000
Продолжительность : 47 м.
Вид битрейта : Постоянный
Битрейт : 192 Кбит/сек
Каналы : 2 канала
Расположение каналов : Front: L R
Частота : 48,0 КГц
Битовая глубина : 16 бит
Метод сжатия : С потерями
Размер потока : 65,9 Мбайт (11%)
Выравнивание : Разделение по промежуткам
Продолжительность промежутка : 40 мс. (1,00 видеокадр)
Время предзагрузки промежутка : 500 мс.

Скриншоты

[Цитировать]



Показать сообщения:    

Текущее время: 25-Июн 16:38

Часовой пояс: UTC + 6


Вы не можете начинать темы
Вы не можете отвечать на сообщения
Вы не можете редактировать свои сообщения
Вы не можете удалять свои сообщения
Вы не можете голосовать в опросах
Вы не можете прикреплять файлы к сообщениям
Вы не можете скачивать файлы

!ВНИМАНИЕ!
Сайт не предоставляет электронные версии произведений, а занимается лишь коллекционированием и каталогизацией ссылок, присылаемых и публикуемых на форуме нашими читателями. Если вы являетесь правообладателем какого-либо представленного материала и не желаете, чтобы ссылка на него находилась в нашем каталоге, свяжитесь с нами, и мы незамедлительно удалим ее. Файлы для обмена на трекере предоставлены пользователями сайта, и администрация не несет ответственности за их содержание. Просьба не заливать файлы, защищенные авторскими правами, а также файлы нелегального содержания!