[ Сегодня идет свободное скачивание без начисления Download ]


Статистика раздачи
Нет
 
   
 
Top  
 
 
[sh]Только о любви (1-4 серии из 4) (2012) DVB[/sh]- Оригинальное название: Только о любви
Год выпуска: 2012
Страна: Россия / Кинокомпания Русское
Жанр: мелодрама
Премьера (РФ): 24 ноября 2012-Режиссер: Валерий Девятилов
Актеры: Карина Разумовская, Артём Федотов, Анна Литкенс, Екатерина Молоховская, Нелли Пшенная, Алексей Медведев, Елена Подкаминская, Виталий Егоров, Виктория Адельфина, Татьяна Казючиц, Игорь Фурманюк, Анатолий Руденко, Павел Трубинер, Александр Арсентьев, Владимир Яковлев, Любовь Руденко, Олег Чудницов, Екатерина Травова, Дарья Лузина, Мария Болонкина, Глеб Сердюков и другие-Описание фильма:
Действие происходит в конце 80-х гг в маленьком городе Заводске. Леся — красивая, одаренная, но очень своенравная девушка. После смерти родителей ее растила старшая сестра Катя — ради Леси она оставила мечту о сцене и работала за троих, чтобы Леся ни в чём не нуждалась. Вскоре после окончания школы красавицу Лесю позвал замуж влюбленный до безумия поклонник и девушка ответила согласием. Но вместо того, чтобы готовится к свадьбе, героиня целыми днями пропадает на вокзале, с тоской встречает поезда из Москвы и ждёт, что Он всё-таки вернётся- -Продолжительность: серия ~ 01:30:00
Качество видео: DVB-Видеокодек: MPEG2
Битрейт видео: ~5804 kbps avg
Размер кадра: 720x576**768х576 (4:3)
Аудиокодек: MPEG1 Layer 2
Аудио: 48.0 kHz, 2 ch ~192 Kbps avg
Субтитры: отсутствуют

Media Info:

Формат : MPEG-PS
Размер файла : 3,86 Гбайт
Продолжительность : 1 ч. 30 м.
Режим общего битрейта : Переменный
Общий поток : 6118 Кбит/сек
Видео
Идентификатор : 224 (0xE0)
Формат : MPEG Video
Версия формата : Version 2
Профиль формата : [email protected]
Параметр BVOP формата : Да
Параметр матрицы формата : Выборочная
Параметр GOP формата : M=2, N=36
Продолжительность : 1 ч. 30 м.
Вид битрейта : Переменный
Битрейт : 5804 Кбит/сек
Максимальный битрейт : 15,0 Мбит/сек
Ширина : 720 пикселей
Высота : 576 пикселей
Соотношение сторон : 4:3
Частота кадров : 25,000 кадров/сек
Стандарт вещания : PAL
Цветовое пространство : YUV
Субдискретизация насыщенности : 4:2:0
Битовая глубина : 8 бит
Тип развёртки : Чересстрочная
Порядок развёртки : Верхнее поле первое
Метод сжатия : С потерями
Бит/(Пиксели*Кадры) : 0.560
Размер потока : 3,67 Гбайт (95%)
Аудио
Идентификатор : 192 (0xC0)
Формат : MPEG Audio
Версия формата : Version 1
Профиль формата : Layer 2
Продолжительность : 1 ч. 30 м.
Вид битрейта : Постоянный
Битрейт : 192 Кбит/сек
Каналы : 2 канала
Частота : 48,0 КГц
Метод сжатия : С потерями
Задержка видео : 2 мс.
Размер потока : 124 Мбайт (3%)
Скриншоты:

[Цитировать]



Показать сообщения:    

Текущее время: 05-Дек 01:28

Часовой пояс: UTC + 3


Вы не можете начинать темы
Вы не можете отвечать на сообщения
Вы не можете редактировать свои сообщения
Вы не можете удалять свои сообщения
Вы не можете голосовать в опросах
Вы не можете прикреплять файлы к сообщениям
Вы не можете скачивать файлы

!ВНИМАНИЕ!
Сайт не предоставляет электронные версии произведений, а занимается лишь коллекционированием и каталогизацией ссылок, присылаемых и публикуемых на форуме нашими читателями. Если вы являетесь правообладателем какого-либо представленного материала и не желаете, чтобы ссылка на него находилась в нашем каталоге, свяжитесь с нами, и мы незамедлительно удалим ее. Файлы для обмена на трекере предоставлены пользователями сайта, и администрация не несет ответственности за их содержание. Просьба не заливать файлы, защищенные авторскими правами, а также файлы нелегального содержания!