[ Сегодня идет свободное скачивание без начисления Download ]


Статистика раздачи
Нет
 
   
 
Top  
 
 
Сталинград. Победа, изменившая мир Год выпуска: 2013
Страна: Россия
Производство: Продюсерский центр "Синема Продакшн", Кинокомпания "Арго"
Жанр: Документальный, исторический, военный
Продолжительность: 8 x ~ 00:38:00
Перевод: Не требуется
Русские субтитры: нет
Режиссер: Александр Беланов
Ведущий: Андрей Соколов
Описание: Сталинградская битва явилась поворотным моментом в ходе Второй Мировой войны. Интерес к Сталинграду не ослабевает, не утихают споры исследователей. Сталинград - это город, ставший символом страданий, боли и величайшего мужества. Ведущий - народный артист России Андрей Соколов...
качество: SATRip
формат: AVI
видеокодек: XviD
аудиокодек: MP3
Видео: MPEG-4 Visual, XviD, 720 х 416 (1,731), 25,000 кадров/сек, 1588 Кбит/сек, 0.212 бит/пикс
Аудио: MP3, 48,0 КГц, 192 Кбит/сек, 2 канала
Автор рипа: mikhailsch

Список и краткое описание серий

1 - Жаркое лето 42-го. Обстановка на юго-западном участке советско-германского фронта летом 1942 года. Планы Сталина и Гитлера. Начало наступления немецких войск на Сталинград. Бои в Донских степях. Отступление советских войск. Разрушение Сталинграда немецкой авиацией. Армия Паулюса на окраинах города. Немецкая пропаганда о роли и значении наступления на Сталинград.
2 - Бои за каждый метр. Особенности "городской войны" в Сталинграде. Тактика советских и немецких войск. Борьба за плацдармы. 62-я и 64-я армии в Сталинграде. Волжская переправа. Советские снайперы. Срыв планов немецкого командования по молниеносному захвату города. Операции советских войск к северу и югу от Сталинграда.
3 - Рождение Урана. Замысел операции контрнаступления советских войск под Сталинградом. Основные этапы разработки операции. Роль Ставки и командующих фронтами в выработке стратегических и тактических решений. Обеспечение секретности подготавливаемой операции. Обсуждение исходных позиций советского контрнаступления. Общая характеристика "Урана" как образцовой операции по окружению противника.
4 - Пейзаж перед битвой. Ситуация на северном и южном участках советско-германского фронта под Сталинградом. Концентрация советских войск перед началом контрнаступления. Деятельность разведок СССР и Германии. Ресурсная база противоборствующих сторон. Характеристика военно-технического потенциала соединений союзников Германии под Сталинградом.
5 - Сталинградский котел. Начало советского контрнаступления 19 -20 ноября 1942 года. Особенности боевых действий войск Юго-Западного и Донского фронтов. Реакция Гитлера на изменение ситуации под Сталинградом. Положение 6-ой армии Паулюса. Попытки немецких войск в Сталинграде избежать окружения и попадания в "котел". Формирование советскими войсками внешнего и внутреннего фронтов контрнаступления под Сталинградом.
6 - Воздушный мост Рейха. Усилия немецкого командования по сохранению боеспособности армии Паулюса в Сталинграде. "Воздушный мост" немцев, его возможности. Разработка планов деблокады войск Паулюса в Сталинграде. Попытка группировки Манштейна осуществить прорыв с юго-запада и её крушение. Ухудшение положения немецких войск, запертых в Сталинграде. Советская и немецкая пропаганда, её влияние на морально-психологическое состояние окруженных немецких войск. Дальнейшее наступление советских войск на запад.
7 - Армия - призрак. Обсуждение советским командованием вариантов ликвидации окруженной немецкой группировки в Сталинграде. Боевые действия по рассечению группировки. Состояние немецких солдат и офицеров к моменту пленения. Арест Паулюса и его штаба. Сталинград после освобождения от немецких войск. Судьба немецких пленных под Сталинградом. Сталин и Гитлер - о Сталинградской битве.
8 - На Берлин! Военно-политические и морально-идеологические результаты и последствия победы советских войск под Сталинградом. Новый военный опыт советских солдат, офицеров и генералов. Союзники СССР о Сталинградской победе. Использование боевого опыта Сталинграда в последующих военных операциях СССР против Германии. Сталинградская битва в военно-историческом контексте (Сталинград и Канны, Сталинград и Верден и другие). Сходство и различие в контрнаступлении советских войск под Москвой в 1941 году и под Сталинградом. Память о Сталинграде - память о беспримерном подвиге отцов и дедов, её актуализация в современных научных исследованиях, публицистике, патриотическом воспитании молодежи.

MediaInfo

Общее
Полное имя : E:\torrent\Сталинград. Победа, изменившая мир\3.Рождение Урана.avi
Формат : AVI
Формат/Информация : Audio Video Interleave
Размер файла : 478 Мбайт
Продолжительность : 37 м.
Общий поток : 1790 Кбит/сек
Программа кодирования : VirtualDubMod 1.5.10.3 | www.virtualdub-fr.org || (build 2550/release)
Библиотека кодирования : VirtualDubMod build 2550/release
Видео
Идентификатор : 0
Формат : MPEG-4 Visual
Профиль формата : Advanced Simple@L5
Параметр BVOP формата : 2
Параметр QPel формата : Нет
Параметр GMC формата : Без точки перехода
Параметр матрицы формата : Default (MPEG)
Идентификатор кодека : XVID
Идентификатор кодека/Подсказка : XviD
Продолжительность : 37 м.
Битрейт : 1588 Кбит/сек
Ширина : 720 пикселей
Высота : 416 пикселей
Соотношение сторон : 1,731
Частота кадров : 25,000 кадров/сек
Цветовое пространство : YUV
Субдискретизация насыщенности : 4:2:0
Битовая глубина : 8 бит
Тип развёртки : Прогрессивная
Метод сжатия : С потерями
Бит/(Пиксели*Кадры) : 0.212
Размер потока : 425 Мбайт (89%)
Библиотека кодирования : XviD 1.2.1 (UTC 2008-12-04)
Аудио
Идентификатор : 1
Формат : MPEG Audio
Версия формата : Version 1
Профиль формата : Layer 3
Идентификатор кодека : 55
Идентификатор кодека/Подсказка : MP3
Продолжительность : 37 м.
Вид битрейта : Постоянный
Битрейт : 192 Кбит/сек
Каналы : 2 канала
Частота : 48,0 КГц
Метод сжатия : С потерями
Размер потока : 51,3 Мбайт (11%)
Выравнивание : Соединение по промежуткам
Продолжительность промежутка : 40 мс. (1,00 видеокадр)
Время предзагрузки промежутка : 504 мс.
Библиотека кодирования : LAME3.99r
Настройки программы : -m s -V 4 -q 2 -lowpass 18.6 -b 192

Скриншоты

[Цитировать]



Показать сообщения:    

Текущее время: 08-Дек 08:59

Часовой пояс: UTC + 3


Вы не можете начинать темы
Вы не можете отвечать на сообщения
Вы не можете редактировать свои сообщения
Вы не можете удалять свои сообщения
Вы не можете голосовать в опросах
Вы не можете прикреплять файлы к сообщениям
Вы не можете скачивать файлы

!ВНИМАНИЕ!
Сайт не предоставляет электронные версии произведений, а занимается лишь коллекционированием и каталогизацией ссылок, присылаемых и публикуемых на форуме нашими читателями. Если вы являетесь правообладателем какого-либо представленного материала и не желаете, чтобы ссылка на него находилась в нашем каталоге, свяжитесь с нами, и мы незамедлительно удалим ее. Файлы для обмена на трекере предоставлены пользователями сайта, и администрация не несет ответственности за их содержание. Просьба не заливать файлы, защищенные авторскими правами, а также файлы нелегального содержания!