[ Сегодня идет свободное скачивание без начисления Download ]


Статистика раздачи
Нет
 
   
 
Top  
 
 
Космос. Руководство для начинающих / The Cosmos. A Beginner's Guide Год выпуска: 2007
Страна: Великобритания
Производство: BBC, Screenhouse Production
Жанр: Документальный
Продолжительность: 5 х ~ 00:29:00
Перевод: Профессиональный (двухголосый закадровый)
Русские субтитры: нет
Режиссер: Пол Бедер, Лоис Сэй
Участники: Адам Харт-Девис, Джанет Самнер, Мегги Адерайн, Верена Кейн, Дон Николсон, Бен Алланах, Карлос Френк, Пиппа Уэллс, Энди Кирк
Описание: Это история обо всем - от первой микросекунды нашей Вселенной до захватывающего будущего. Адам Харт-Дэвис, Джанет Самнер и Мэгги Адерайн путешествуют по нашей планете чтобы познакомиться с последними научными достижениями в области изучения космического пространства...

качество: SATRip
формат: AVI
видеокодек: XviD
аудиокодек: AC3
Видео: MPEG-4 Visual, XviD, 704 х 384 (1,85:1), 25,000 кадр/сек, 1504 Кбит/сек, 0.223 бит/пиксель
Аудио: MPEG Audio Layer 3, 48,0 КГц, 128 Кбит/сек, 2 канала
Автор рипа shibay9Список и краткое описание серий:

1. Жизнь в космосе / Life in the Cosmos

Впечатляющая сеть телескопов в горах Северной Калифорнии находится на переднем крае поисков разумной жизни в космосе. Круглые сутки в течение всего года они сканируют небо в надежде перехватить послания внеземных цивилизаций, человеческий гений постепенно открывает нам космос, но самый важный из всех вопросов, встающих перед нами остается пока без ответа. Неужели мы одни во вселенной и нет другой жизни? Ведущие фильма встретятся с охотниками за инопланетянами. Они всю жизнь искали следы жизни в космосе. Некоторые из них ищу примитивные формы жизни буквально под носом, другие ищут тех, с кем можно было бы поговорить.
Продолжительность: 00:25:08

2. Как возникла вселенная / Building the Universe

Как создавалась вселенная, как в ней всё было создано и как проводились эксперименты, чтоб объяснить всё это. Самый смелый и грандиозный эксперимент, который проводится глубоко под землей в Швейцарии, и должен воссоздать "большой взрыв". Головокружительный полет, в котором ученые пытаются узнать из чего сделаны планеты. Ученые исследуют то, из чего сделаны мы все - звездную пыль.
Продолжительность: 00:28:57

3. Наблюдая вселенную / Seeing the Universe

В Чили в Паранале, на высоте 2600 метров над уровня моря находится самый большой в мире оптический телескоп. Здесь разреженный воздух и трудно дышать, но это самое сухое место на Земле, а значит лучшее место в мире для наблюдения за вселенной.
Продолжительность: 00:28:16

4. Исследование космоса / Space Exploration

Человечество испокон веков было очаровано космосом, но технологии, позволяющие покинуть пределы нашей планеты и исследовать Солнечную систему появились всего около 50-ти лет назад. Мы отправили спутники к другим мирам, вывели на земную орбиту космические станции и даже высадили человека на Луну. Но что происходит на переднем крае исследования космоса сейчас? Большая часть исследования нашей солнечной системы была проделана автоматическими космическими аппаратами. Может быть, что сейчас начинается новая эра открытий, астронавты отправятся вслед за автоматизированными спутниками на Марс и дальше.
Продолжительность: 00:29:02

5. Неистовая вселенная / Violent Universe

Это репортаж в "Дикого Запада" вселенной. Небо кажется спокойным, тихим и неизменным, но это не так. Драматические события на задворках вселенной и у нашего порога происходят регулярно. Так же в фильме: - любопытный инцидент со взрывом звезды; черная дыра, недавно найденная в нашей галактике; жестокое Солнце в трехмерном изображении; а так же столетняя годовщина падения Тунгусского метеорита, и какие попытки предпринимаются для того, чтобы предотвратить последующие атаки метеоритов.
Продолжительность: 00:28:38

MediaInfo

Общее
Полное имя : D:\torrent\Космос. Руководство для начинающих\3. Наблюдая Вселенную.avi
Формат : AVI
Формат/Информация : Audio Video Interleave
Размер файла : 332 Мбайт
Продолжительность : 28 м.
Общий поток : 1642 Кбит/сек
Программа кодирования : VirtualDubMod 1.5.10.3 | www.virtualdub-fr.org || (build 2550/release)
Библиотека кодирования : VirtualDub build 35390/release
Видео
Идентификатор : 0
Формат : MPEG-4 Visual
Профиль формата : Advanced Simple@L5
Параметр BVOP формата : 2
Параметр QPel формата : Нет
Параметр GMC формата : Без точки перехода
Параметр матрицы формата : Default (H.263)
Режим смешивания : Сжатый битовый поток
Идентификатор кодека : XVID
Идентификатор кодека/Подсказка : XviD
Продолжительность : 28 м.
Битрейт : 1504 Кбит/сек
Ширина : 704 пикселя
Высота : 384 пикселя
Соотношение сторон : 1,85:1
Частота кадров : 25,000 кадров/сек
Цветовое пространство : YUV
Субдискретизация насыщенности : 4:2:0
Битовая глубина : 8 бит
Тип развёртки : Прогрессивная
Метод сжатия : С потерями
Бит/(Пиксели*Кадры) : 0.223
Размер потока : 304 Мбайт (92%)
Библиотека кодирования : XviD 64
Аудио
Идентификатор : 1
Формат : MPEG Audio
Версия формата : Version 1
Профиль формата : Layer 3
Идентификатор кодека : 55
Идентификатор кодека/Подсказка : MP3
Продолжительность : 28 м.
Вид битрейта : Постоянный
Битрейт : 128 Кбит/сек
Каналы : 2 канала
Частота : 48,0 КГц
Метод сжатия : С потерями
Размер потока : 25,9 Мбайт (8%)
Выравнивание : Соединение по промежуткам
Продолжительность промежутка : 40 мс. (1,00 видеокадр)
Время предзагрузки промежутка : 504 мс.
Библиотека кодирования : LAME3.99r
Настройки программы : -m s -V 4 -q 0 -lowpass 17 -b 128

Скриншоты

[Цитировать]



Показать сообщения:    

Текущее время: 11-Дек 14:55

Часовой пояс: UTC + 3


Вы не можете начинать темы
Вы не можете отвечать на сообщения
Вы не можете редактировать свои сообщения
Вы не можете удалять свои сообщения
Вы не можете голосовать в опросах
Вы не можете прикреплять файлы к сообщениям
Вы не можете скачивать файлы

!ВНИМАНИЕ!
Сайт не предоставляет электронные версии произведений, а занимается лишь коллекционированием и каталогизацией ссылок, присылаемых и публикуемых на форуме нашими читателями. Если вы являетесь правообладателем какого-либо представленного материала и не желаете, чтобы ссылка на него находилась в нашем каталоге, свяжитесь с нами, и мы незамедлительно удалим ее. Файлы для обмена на трекере предоставлены пользователями сайта, и администрация не несет ответственности за их содержание. Просьба не заливать файлы, защищенные авторскими правами, а также файлы нелегального содержания!