[ Сегодня идет свободное скачивание без начисления Download ]


Статистика раздачи
Нет
 
   
 
Top  
 
 
Искусство Испании / Art of Spain Год выпуска: 2008
Страна: Великобритания
Производство: ВВС
Жанр: Документальный, познавательный, культура
Продолжительность: 3 х ~ 00:51:00
Перевод: Одноголосый закадровый
Русские субтитры: нет
Режиссер: Робин Дэшвуд / Robin Dashwood
Сюжет: Документальный фильм о влиянии мусульман на искусство Испании
качество: SATRip
формат: AVI
видеокодек: DivX
аудиокодек: MP3
Видео: MPEG-4 Visual, DivX 5, 704 х 400 (16:9), 25,000 кадр/сек, 1845 Кбит/сек, 0.262 бит/пиксель
Аудио: MPEG Audio Layer 3, 48,0 КГц, 192 Кбит/сек, 2 канала
Список и краткое описание серий:1. Мавританский юг / Moorish southНа протяжении более семисот лет Испания находилась под властью мусульман, причем сердце ее билось на юге. Это было уникальное место встречи востока и запада, и в результате этой встречи произошел взрыв - мусульманская Испания превратилась в одну из величайших цивилизаций в мире, которая сформировала облик самой Испании и остальной Европы. О том, как Испания дала миру самое поразительное и оригинальное искусство из всех когда-либо существовавших в мире.2. Мрачное сердце / Gloomy heartРавнины Кастилии - суровое сердце центральной Испании. В шестнадцатом и семнадцатом веках эти бесплодные пейзажи дали жизнь некоторым из самых драматичных направлений в истории искусства. От мистического мира Эль Греко до мрачных образов Сурбарана и Риберы. Это искусство вдохновлялось пламенным католицизмом и присущим ему страстным желанием соприкоснуться с Богом. Религия переплеталась с насилием, инквизиция боролась за удержание власти. Как в такую суровую, жестокую эпоху могли появиться величайшие произведения искусства?3. Мистический север / Mystical northКогда приезжаешь на север Испании, кажется, что находишься совсем в другой стране. Многие из живущих здесь даже говорят на другом языке. В XX веке это ощущение непохожести вылилось в насилие, революцию и войну. Но из этого противоборства выросли одни из самых потрясающих произведений современного искусства в мире: наивные, живые и зачастую жестокие. История северной Испании определила всю историю современного искусства.

MediaInfo

Общее
Полное имя : D:\torrent\Искусство Испании\2 серия.avi
Формат : AVI
Формат/Информация : Audio Video Interleave
Размер файла : 735 Мбайт
Продолжительность : 50 м.
Общий поток : 2047 Кбит/сек
Библиотека кодирования : VirtualDub build 32661/release
Видео
Идентификатор : 0
Формат : MPEG-4 Visual
Параметр BVOP формата : Нет
Параметр QPel формата : Нет
Параметр GMC формата : Без точки перехода
Параметр матрицы формата : Default (H.263)
Идентификатор кодека : DX50
Идентификатор кодека/Подсказка : DivX 5
Продолжительность : 50 м.
Битрейт : 1845 Кбит/сек
Ширина : 704 пикселя
Высота : 400 пикселей
Соотношение сторон : 16:9
Частота кадров : 25,000 кадров/сек
Цветовое пространство : YUV
Субдискретизация насыщенности : 4:2:0
Битовая глубина : 8 бит
Тип развёртки : Прогрессивная
Метод сжатия : С потерями
Бит/(Пиксели*Кадры) : 0.262
Размер потока : 663 Мбайт (90%)
Библиотека кодирования : DivX 5.0.5 (UTC 2003-04-24)
Аудио
Идентификатор : 1
Формат : MPEG Audio
Версия формата : Version 1
Профиль формата : Layer 3
Режим : Joint stereo
Идентификатор кодека : 55
Идентификатор кодека/Подсказка : MP3
Продолжительность : 50 м.
Вид битрейта : Постоянный
Битрейт : 192 Кбит/сек
Каналы : 2 канала
Частота : 48,0 КГц
Метод сжатия : С потерями
Размер потока : 69,0 Мбайт (9%)
Выравнивание : Разделение по промежуткам
Продолжительность промежутка : 40 мс. (1,00 видеокадр)
Время предзагрузки промежутка : 500 мс.

Скриншоты

[Цитировать]



Показать сообщения:    

Текущее время: 05-Дек 19:42

Часовой пояс: UTC + 3


Вы не можете начинать темы
Вы не можете отвечать на сообщения
Вы не можете редактировать свои сообщения
Вы не можете удалять свои сообщения
Вы не можете голосовать в опросах
Вы не можете прикреплять файлы к сообщениям
Вы не можете скачивать файлы

!ВНИМАНИЕ!
Сайт не предоставляет электронные версии произведений, а занимается лишь коллекционированием и каталогизацией ссылок, присылаемых и публикуемых на форуме нашими читателями. Если вы являетесь правообладателем какого-либо представленного материала и не желаете, чтобы ссылка на него находилась в нашем каталоге, свяжитесь с нами, и мы незамедлительно удалим ее. Файлы для обмена на трекере предоставлены пользователями сайта, и администрация не несет ответственности за их содержание. Просьба не заливать файлы, защищенные авторскими правами, а также файлы нелегального содержания!