[ Сегодня идет свободное скачивание без начисления Download ]


Статистика раздачи
Нет
 
   
 
Top  
 
 
Пума! / Puma! Год выпуска: 2012
Страна: США
Студия: NDR Naturfilm-Studio Hamburg Doclihts GMBH
Производство: National Geographic Channel
Жанр: Документальный, научно-познавательный, природа
Продолжительность: 00:44:59
Перевод: Одноголосый закадровый
Доп. инфо о переводе: Денис Некрасов / АРК·ТВ
Русские субтитры: нет
Режиссер: Уве Мюллер / Uwe Muller
Описание: Этот фильм рассказывает историю одной из самых скромных кошек в мире. Мы наблюдаем за самкой пумы и за ее тремя малышами, за тем, как они учатся у своей мамы, как они подкрадываются к гуанако и как они делаются "невидимыми", когда жертва приближается или когда мама уходит на охоту. Мать-пума должна быть хорошим охотником. Но успех ее охоты необходим не только ее малышам. Кондоры, Южноамериканские серые лисы и другие животные – их выживание также зависит от хорошей охоты пумы…

Тип релиза: HDTVRip 720p
Контейнер: MKV
Видео: MPEG-4 AVC Video, 1280 х 720 (16:9), 25,000 кадров/сек, 4408 Кбит/сек, 0.191 бит/пиксель
Аудио: Audio Coding 3, 48,0 КГц, 192 Кбит/сек, 2 канала
Автор рипа: dysonegear

MediaInfo

Общее
Уникальный идентификатор : 193629743339302005607696144034081106040 (0x91ABBB69BBD15D0789F07AA3AD256878)
Полное имя : E:\torrent\Пума! HDTVRip (720p).mkv
Формат : Matroska
Версия формата : Version 2
Размер файла : 1,45 Гбайт
Продолжительность : 44 м.
Общий поток : 4600 Кбит/сек
Дата кодирования : UTC 2013-02-15 06:54:56
Программа кодирования : mkvmerge v5.0.1 ('Es ist Sommer') built on Nov 6 2011 16:23:40
Библиотека кодирования : libebml v1.2.2 + libmatroska v1.3.0
Видео
Идентификатор : 1
Формат : AVC
Формат/Информация : Advanced Video Codec
Профиль формата : [email protected]
Параметр CABAC формата : Да
Параметр ReFrames формата : 8 кадров
Идентификатор кодека : V_MPEG4/ISO/AVC
Продолжительность : 44 м.
Битрейт : 4408 Кбит/сек
Ширина : 1280 пикселей
Высота : 720 пикселей
Соотношение сторон : 16:9
Режим частоты кадров : Постоянный
Частота кадров : 25,000 кадров/сек
Цветовое пространство : YUV
Субдискретизация насыщенности : 4:2:0
Битовая глубина : 8 бит
Тип развёртки : Прогрессивная
Бит/(Пиксели*Кадры) : 0.191
Размер потока : 1,36 Гбайт (94%)
Библиотека кодирования : x264 core 119 r2106 07efeb4
Настройки программы : cabac=1 / ref=8 / deblock=1:-1:-1 / analyse=0x3:0x133 / me=umh / subme=7 / psy=1 / psy_rd=1.00:0.10 / mixed_ref=1 / me_range=16 / chroma_me=1 / trellis=2 / 8x8dct=1 / cqm=0 / deadzone=21,11 / fast_pskip=0 / chroma_qp_offset=-3 / threads=12 / sliced_threads=0 / nr=0 / decimate=1 / interlaced=0 / bluray_compat=0 / constrained_intra=0 / bframes=3 / b_pyramid=2 / b_adapt=2 / b_bias=0 / direct=1 / weightb=1 / open_gop=0 / weightp=2 / keyint=250 / keyint_min=25 / scenecut=40 / intra_refresh=0 / rc_lookahead=50 / rc=abr / mbtree=1 / bitrate=4408 / ratetol=1.0 / qcomp=0.60 / qpmin=0 / qpmax=69 / qpstep=4 / ip_ratio=1.40 / aq=1:1.00
Default : Да
Forced : Нет
Аудио
Идентификатор : 2
Формат : AC-3
Формат/Информация : Audio Coding 3
Расширение режима : CM (complete main)
Параметр Endianness формата : Big
Идентификатор кодека : A_AC3
Продолжительность : 44 м.
Вид битрейта : Постоянный
Битрейт : 192 Кбит/сек
Каналы : 2 канала
Расположение каналов : Front: L R
Частота : 48,0 КГц
Битовая глубина : 16 бит
Метод сжатия : С потерями
Размер потока : 61,8 Мбайт (4%)
Default : Да
Forced : Нет

Скриншоты

[Цитировать]



Показать сообщения:    

Текущее время: 06-Дек 11:07

Часовой пояс: UTC + 3


Вы не можете начинать темы
Вы не можете отвечать на сообщения
Вы не можете редактировать свои сообщения
Вы не можете удалять свои сообщения
Вы не можете голосовать в опросах
Вы не можете прикреплять файлы к сообщениям
Вы не можете скачивать файлы

!ВНИМАНИЕ!
Сайт не предоставляет электронные версии произведений, а занимается лишь коллекционированием и каталогизацией ссылок, присылаемых и публикуемых на форуме нашими читателями. Если вы являетесь правообладателем какого-либо представленного материала и не желаете, чтобы ссылка на него находилась в нашем каталоге, свяжитесь с нами, и мы незамедлительно удалим ее. Файлы для обмена на трекере предоставлены пользователями сайта, и администрация не несет ответственности за их содержание. Просьба не заливать файлы, защищенные авторскими правами, а также файлы нелегального содержания!