[ Сегодня идет свободное скачивание без начисления Download ]


Статистика раздачи
Нет
 
   
 
Top  
 
 
Молния. Перезарядка / Lightning reloaded Год выпуска: 2010
Страна: США
Студия: ORF UNIVERSUM, ZDF and National Geographic Channel
Жанр: Документальный, научно-познавательный, природа
Продолжительность: 00:44:59
Перевод: Одноголосый закадровый
Русские субтитры: нет
Режиссер: Манфред Христа / Manfred Christ
Описание: Исследования грозового неба - это одно из самых захватывающих приключений в современной науке. Это путешествие в самое сердце грозы, к научным границам, в неизведанный, полный загадок мир. Грозовая молния, по-прежнему окутана загадками. В этом фильме исследователи открывают ее тайны одну за другой...
Тип релиза: HDTVRip 720p
Контейнер: MKV
Видео: MPEG-4 AVC Video, 1280 х 720 (16:9), 25,000 кадров/сек, 7841 Кбит/сек, 0.340 бит/пиксель
Аудио: Русский, MPEG Audio Layer 2, 48,0 КГц, 192 Кбит/сек, 2 канала
Аудио 2: Английский, MPEG Audio Layer 2, 48,0 КГц, 192 Кбит/сек, 2 канала
Автор рипа: стефан

MediaInfo

Общее
Уникальный идентификатор : 168348648403719580577546155723716462494 (0x7EA6C532C2870C1E037BA147C20E879E)
Полное имя : E:\torrent\Молния. Перезарядка HDTVRip (720p).mkv
Формат : Matroska
Версия формата : Version 2
Размер файла : 2,64 Гбайт
Продолжительность : 44 м.
Общий поток : 8392 Кбит/сек
Программа кодирования : Lavf51.12.1
Библиотека кодирования : Lavf51.12.1
Видео
Идентификатор : 1
Формат : AVC
Формат/Информация : Advanced Video Codec
Профиль формата : Baseline@L3.2
Параметр CABAC формата : Нет
Параметр ReFrames формата : 1 кадр
Параметр GOP формата : M=1, N=12
Идентификатор кодека : V_MPEG4/ISO/AVC
Продолжительность : 44 м.
Битрейт : 7841 Кбит/сек
Ширина : 1280 пикселей
Высота : 720 пикселей
Соотношение сторон : 16:9
Режим частоты кадров : Постоянный
Частота кадров : 25,000 кадров/сек
Цветовое пространство : YUV
Субдискретизация насыщенности : 4:2:0
Битовая глубина : 8 бит
Тип развёртки : Прогрессивная
Бит/(Пиксели*Кадры) : 0.340
Размер потока : 2,46 Гбайт (93%)
Default : Да
Forced : Нет
Аудио #1
Идентификатор : 2
Формат : MPEG Audio
Версия формата : Version 1
Профиль формата : Layer 2
Идентификатор кодека : A_MPEG/L2
Идентификатор кодека/Подсказка : MP2
Продолжительность : 44 м.
Вид битрейта : Постоянный
Битрейт : 192 Кбит/сек
Каналы : 2 канала
Частота : 48,0 КГц
Метод сжатия : С потерями
Размер потока : 61,8 Мбайт (2%)
Default : Да
Forced : Нет
Аудио #2
Идентификатор : 3
Формат : MPEG Audio
Версия формата : Version 1
Профиль формата : Layer 2
Идентификатор кодека : A_MPEG/L2
Идентификатор кодека/Подсказка : MP2
Продолжительность : 44 м.
Вид битрейта : Постоянный
Битрейт : 192 Кбит/сек
Каналы : 2 канала
Частота : 48,0 КГц
Метод сжатия : С потерями
Размер потока : 61,8 Мбайт (2%)
Default : Да
Forced : Нет

Скриншоты

[Цитировать]



Показать сообщения:    

Текущее время: 07-Дек 13:32

Часовой пояс: UTC + 3


Вы не можете начинать темы
Вы не можете отвечать на сообщения
Вы не можете редактировать свои сообщения
Вы не можете удалять свои сообщения
Вы не можете голосовать в опросах
Вы не можете прикреплять файлы к сообщениям
Вы не можете скачивать файлы

!ВНИМАНИЕ!
Сайт не предоставляет электронные версии произведений, а занимается лишь коллекционированием и каталогизацией ссылок, присылаемых и публикуемых на форуме нашими читателями. Если вы являетесь правообладателем какого-либо представленного материала и не желаете, чтобы ссылка на него находилась в нашем каталоге, свяжитесь с нами, и мы незамедлительно удалим ее. Файлы для обмена на трекере предоставлены пользователями сайта, и администрация не несет ответственности за их содержание. Просьба не заливать файлы, защищенные авторскими правами, а также файлы нелегального содержания!