[ Сегодня идет свободное скачивание без начисления Download ]


Статистика раздачи
Нет
 
   
 
 
 
BluScenes: Фрактальный план / BluScenes: Fractal Plane Год выпуска: 2011
Страна: США
Жанр: Фильм-медитация визуальной музыки
Продолжительность: 01:13:35
Перевод: Не требуется
Русские субтитры: нет
Режиссер: Кристофер Урситти / Christopher Ursitti
Описание: Фильм серии Bluscenes. Современное искусство для телевидения высокой четкости. Даже в наш компьютерный век невозможно лишь с помощью компьютера передать столь сложные анимации в реальном времени. Потребовалось более года для создания даного фильма, который стал одновременно технологическим, ностальгическим, прекрасным и возвышенным. Данная программа состоит из двух частей- "Фрактального плана" и "Математических грез". Музыкально-звуковое сопровождение создано композиторами Крисом Мартином и Джефом Харви...
Тип релиза: Blu-ray disc 1080p
Контейнер: M2TS
Видео: MPEG-4 AVC Video 29698 kbps 1080p / 23,976 fps / 16:9 / High Profile 4.1
Аудио: DTS-HD Master Audio English 6429 kbps 7.1 / 48 kHz / 6429 kbps / 24-bit (DTS Core: 5.1 / 48 kHz / 1509 kbps / 24-bit)
Аудио 2: Dolby Digital Audio English 448 kbps 5.1 / 48 kHz / 448 kbps
Аудио 3: Dolby Digital Audio English 224 kbps 2.0 / 48 kHz / 224 kbps

BDInfo

Disc Title: BluScenes Фрактальный план Blu-Ray(1080p)
Disc Size: 21 748 755 214 bytes
Protection: AACS
BD-Java: No
BDInfo: 0.5.8
Notes:
BDINFO HOME:
Cinema Squid
http://www.cinemasquid.com/blu-ray/tools/bdinfo
INCLUDES FORUMS REPORT FOR:
AVS Forum Blu-ray Audio and Video Specifications Thread
http://www.avsforum.com/avs-vb/showthread.php?t=1155731
********************
PLAYLIST: 00005.MPLS
********************
Total   Video
Title                                                           Codec   Length  Movie Size      Disc Size       Bitrate Bitrate Main Audio Track                          Secondary Audio Track
-----                                                           ------  ------- --------------  --------------  ------- ------- ------------------                        ---------------------
00005.MPLS                                                      AVC     1:13:35 21 378 963 456  21 748 755 214  38,73   29,70   DTS-HD Master 7.1 6429Kbps (48kHz/24-bit) DD AC3 5.1 448Kbps
DISC INFO:
Disc Title:     BluScenes Фрактальный план Blu-Ray(1080p)
Disc Size:      21 748 755 214 bytes
Protection:     AACS
BD-Java:        No
BDInfo:         0.5.8
PLAYLIST REPORT:
Name:                   00005.MPLS
Length:                 1:13:35.953 (h:m:s.ms)
Size:                   21 378 963 456 bytes
Total Bitrate:          38,73 Mbps
VIDEO:
Codec                   Bitrate             Description
-----                   -------             -----------
MPEG-4 AVC Video        29698 kbps          1080p / 23,976 fps / 16:9 / High Profile 4.1
AUDIO:
Codec                           Language        Bitrate         Description
-----                           --------        -------         -----------
DTS-HD Master Audio             English         6429 kbps       7.1 / 48 kHz / 6429 kbps / 24-bit (DTS Core: 5.1 / 48 kHz / 1509 kbps / 24-bit)
Dolby Digital Audio             English         448 kbps        5.1 / 48 kHz / 448 kbps
Dolby Digital Audio             English         224 kbps        2.0 / 48 kHz / 224 kbps
FILES:
Name            Time In         Length          Size            Total Bitrate
----            -------         ------          ----            -------------
00002.M2TS      0:00:00.000     0:44:24.620     12 497 301 504  37 521
00003.M2TS      0:44:24.620     0:29:11.332     8 881 661 952   40 571
CHAPTERS:
Number          Time In         Length          Avg Video Rate  Max 1-Sec Rate  Max 1-Sec Time  Max 5-Sec Rate  Max 5-Sec Time  Max 10Sec Rate  Max 10Sec Time  Avg Frame Size  Max Frame Size  Max Frame Time
------          -------         ------          --------------  --------------  --------------  --------------  --------------  --------------  --------------  --------------  --------------  --------------
1               0:00:00.000     1:13:35.953     29 698 kbps     53 230 kbps     00:17:18.370    43 602 kbps     00:23:31.243    40 563 kbps     00:25:36.952    154 831 bytes   963 928 bytes   00:22:18.086
STREAM DIAGNOSTICS:
File            PID             Type            Codec           Language                Seconds                 Bitrate                 Bytes           Packets
----            ---             ----            -----           --------                --------------          --------------          -------------   -----
00002.M2TS      4113 (0x1011)   0x1B            AVC                                     2664,495                28 726                  9 567 659 532   52 035 950
00002.M2TS      4352 (0x1100)   0x86            DTS-HD MA       eng (English)           2664,495                6 243                   2 079 192 252   11 715 824
00002.M2TS      4353 (0x1101)   0x81            AC3             eng (English)           2664,495                448                     149 219 840     832 700
00002.M2TS      4354 (0x1102)   0x81            AC3             eng (English)           2664,495                224                     74 609 920      416 350
00003.M2TS      4113 (0x1011)   0x1B            AVC                                     1751,250                31 180                  6 825 423 463   37 119 462
00003.M2TS      4352 (0x1100)   0x86            DTS-HD MA       eng (English)           1751,250                6 713                   1 469 499 760   8 259 567
00003.M2TS      4353 (0x1101)   0x81            AC3             eng (English)           1751,250                448                     98 074 368      547 290
00003.M2TS      4354 (0x1102)   0x81            AC3             eng (English)           1751,250                224                     49 037 184      273 645
QUICK SUMMARY:
Disc Title: BluScenes Фрактальный план Blu-Ray(1080p)
Disc Size: 21 748 755 214 bytes
Protection: AACS
BD-Java: No
Playlist: 00005.MPLS
Size: 21 378 963 456 bytes
Length: 1:13:35.953
Total Bitrate: 38,73 Mbps
Video: MPEG-4 AVC Video / 29698 kbps / 1080p / 23,976 fps / 16:9 / High Profile 4.1
Audio: English / DTS-HD Master Audio / 7.1 / 48 kHz / 6429 kbps / 24-bit (DTS Core: 5.1 / 48 kHz / 1509 kbps / 24-bit)
Audio: English / Dolby Digital Audio / 5.1 / 48 kHz / 448 kbps
Audio: English / Dolby Digital Audio / 2.0 / 48 kHz / 224 kbps
********************
PLAYLIST: 00006.MPLS
********************
Total   Video
Title                                                           Codec   Length  Movie Size      Disc Size       Bitrate Bitrate Main Audio Track                          Secondary Audio Track
-----                                                           ------  ------- --------------  --------------  ------- ------- ------------------                        ---------------------
00006.MPLS                                                      AVC     1:13:35 21 378 963 456  21 748 755 214  38,73   29,70   DTS-HD Master 7.1 6429Kbps (48kHz/24-bit) DD AC3 5.1 448Kbps
DISC INFO:
Disc Title:     BluScenes Фрактальный план Blu-Ray(1080p)
Disc Size:      21 748 755 214 bytes
Protection:     AACS
BD-Java:        No
BDInfo:         0.5.8
PLAYLIST REPORT:
Name:                   00006.MPLS
Length:                 1:13:35.953 (h:m:s.ms)
Size:                   21 378 963 456 bytes
Total Bitrate:          38,73 Mbps
VIDEO:
Codec                   Bitrate             Description
-----                   -------             -----------
MPEG-4 AVC Video        29698 kbps          1080p / 23,976 fps / 16:9 / High Profile 4.1
AUDIO:
Codec                           Language        Bitrate         Description
-----                           --------        -------         -----------
DTS-HD Master Audio             English         6429 kbps       7.1 / 48 kHz / 6429 kbps / 24-bit (DTS Core: 5.1 / 48 kHz / 1509 kbps / 24-bit)
Dolby Digital Audio             English         448 kbps        5.1 / 48 kHz / 448 kbps
Dolby Digital Audio             English         224 kbps        2.0 / 48 kHz / 224 kbps
FILES:
Name            Time In         Length          Size            Total Bitrate
----            -------         ------          ----            -------------
00002.M2TS      0:00:00.000     0:44:24.620     12 497 301 504  37 521
00003.M2TS      0:44:24.620     0:29:11.332     8 881 661 952   40 571
CHAPTERS:
Number          Time In         Length          Avg Video Rate  Max 1-Sec Rate  Max 1-Sec Time  Max 5-Sec Rate  Max 5-Sec Time  Max 10Sec Rate  Max 10Sec Time  Avg Frame Size  Max Frame Size  Max Frame Time
------          -------         ------          --------------  --------------  --------------  --------------  --------------  --------------  --------------  --------------  --------------  --------------
1               0:00:00.000     1:13:35.953     29 698 kbps     53 230 kbps     00:17:18.370    43 602 kbps     00:23:31.243    40 563 kbps     00:25:36.952    154 831 bytes   963 928 bytes   00:22:18.086
STREAM DIAGNOSTICS:
File            PID             Type            Codec           Language                Seconds                 Bitrate                 Bytes           Packets
----            ---             ----            -----           --------                --------------          --------------          -------------   -----
00002.M2TS      4113 (0x1011)   0x1B            AVC                                     2664,495                28 726                  9 567 659 532   52 035 950
00002.M2TS      4352 (0x1100)   0x86            DTS-HD MA       eng (English)           2664,495                6 243                   2 079 192 252   11 715 824
00002.M2TS      4353 (0x1101)   0x81            AC3             eng (English)           2664,495                448                     149 219 840     832 700
00002.M2TS      4354 (0x1102)   0x81            AC3             eng (English)           2664,495                224                     74 609 920      416 350
00003.M2TS      4113 (0x1011)   0x1B            AVC                                     1751,250                31 180                  6 825 423 463   37 119 462
00003.M2TS      4352 (0x1100)   0x86            DTS-HD MA       eng (English)           1751,250                6 713                   1 469 499 760   8 259 567
00003.M2TS      4353 (0x1101)   0x81            AC3             eng (English)           1751,250                448                     98 074 368      547 290
00003.M2TS      4354 (0x1102)   0x81            AC3             eng (English)           1751,250                224                     49 037 184      273 645
QUICK SUMMARY:
Disc Title: BluScenes Фрактальный план Blu-Ray(1080p)
Disc Size: 21 748 755 214 bytes
Protection: AACS
BD-Java: No
Playlist: 00006.MPLS
Size: 21 378 963 456 bytes
Length: 1:13:35.953
Total Bitrate: 38,73 Mbps
Video: MPEG-4 AVC Video / 29698 kbps / 1080p / 23,976 fps / 16:9 / High Profile 4.1
Audio: English / DTS-HD Master Audio / 7.1 / 48 kHz / 6429 kbps / 24-bit (DTS Core: 5.1 / 48 kHz / 1509 kbps / 24-bit)
Audio: English / Dolby Digital Audio / 5.1 / 48 kHz / 448 kbps
Audio: English / Dolby Digital Audio / 2.0 / 48 kHz / 224 kbps
********************
PLAYLIST: 00002.MPLS
********************
Total   Video
Title                                                           Codec   Length  Movie Size      Disc Size       Bitrate Bitrate Main Audio Track                          Secondary Audio Track
-----                                                           ------  ------- --------------  --------------  ------- ------- ------------------                        ---------------------
00002.MPLS                                                      AVC     0:44:24 12 497 301 504  21 748 755 214  37,52   28,73   DTS-HD Master 7.1 6242Kbps (48kHz/24-bit) DD AC3 5.1 448Kbps
DISC INFO:
Disc Title:     BluScenes Фрактальный план Blu-Ray(1080p)
Disc Size:      21 748 755 214 bytes
Protection:     AACS
BD-Java:        No
BDInfo:         0.5.8
PLAYLIST REPORT:
Name:                   00002.MPLS
Length:                 0:44:24.620 (h:m:s.ms)
Size:                   12 497 301 504 bytes
Total Bitrate:          37,52 Mbps
VIDEO:
Codec                   Bitrate             Description
-----                   -------             -----------
MPEG-4 AVC Video        28725 kbps          1080p / 23,976 fps / 16:9 / High Profile 4.1
AUDIO:
Codec                           Language        Bitrate         Description
-----                           --------        -------         -----------
DTS-HD Master Audio             English         6242 kbps       7.1 / 48 kHz / 6242 kbps / 24-bit (DTS Core: 5.1 / 48 kHz / 1509 kbps / 24-bit)
Dolby Digital Audio             English         448 kbps        5.1 / 48 kHz / 448 kbps
Dolby Digital Audio             English         224 kbps        2.0 / 48 kHz / 224 kbps
FILES:
Name            Time In         Length          Size            Total Bitrate
----            -------         ------          ----            -------------
00002.M2TS      0:00:00.000     0:44:24.620     12 497 301 504  37 521
CHAPTERS:
Number          Time In         Length          Avg Video Rate  Max 1-Sec Rate  Max 1-Sec Time  Max 5-Sec Rate  Max 5-Sec Time  Max 10Sec Rate  Max 10Sec Time  Avg Frame Size  Max Frame Size  Max Frame Time
------          -------         ------          --------------  --------------  --------------  --------------  --------------  --------------  --------------  --------------  --------------  --------------
1               0:00:00.000     0:44:24.620     28 725 kbps     53 230 kbps     00:17:18.370    43 602 kbps     00:23:31.243    40 563 kbps     00:25:36.952    149 759 bytes   963 928 bytes   00:22:18.086
STREAM DIAGNOSTICS:
File            PID             Type            Codec           Language                Seconds                 Bitrate                 Bytes           Packets
----            ---             ----            -----           --------                --------------          --------------          -------------   -----
00002.M2TS      4113 (0x1011)   0x1B            AVC                                     2664,495                28 726                  9 567 659 532   52 035 950
00002.M2TS      4352 (0x1100)   0x86            DTS-HD MA       eng (English)           2664,495                6 243                   2 079 192 252   11 715 824
00002.M2TS      4353 (0x1101)   0x81            AC3             eng (English)           2664,495                448                     149 219 840     832 700
00002.M2TS      4354 (0x1102)   0x81            AC3             eng (English)           2664,495                224                     74 609 920      416 350
QUICK SUMMARY:
Disc Title: BluScenes Фрактальный план Blu-Ray(1080p)
Disc Size: 21 748 755 214 bytes
Protection: AACS
BD-Java: No
Playlist: 00002.MPLS
Size: 12 497 301 504 bytes
Length: 0:44:24.620
Total Bitrate: 37,52 Mbps
Video: MPEG-4 AVC Video / 28725 kbps / 1080p / 23,976 fps / 16:9 / High Profile 4.1
Audio: English / DTS-HD Master Audio / 7.1 / 48 kHz / 6242 kbps / 24-bit (DTS Core: 5.1 / 48 kHz / 1509 kbps / 24-bit)
Audio: English / Dolby Digital Audio / 5.1 / 48 kHz / 448 kbps
Audio: English / Dolby Digital Audio / 2.0 / 48 kHz / 224 kbps
********************
PLAYLIST: 00003.MPLS
********************
Total   Video
Title                                                           Codec   Length  Movie Size      Disc Size       Bitrate Bitrate Main Audio Track                          Secondary Audio Track
-----                                                           ------  ------- --------------  --------------  ------- ------- ------------------                        ---------------------
00003.MPLS                                                      AVC     0:29:11 8 881 661 952   21 748 755 214  40,57   31,18   DTS-HD Master 7.1 6713Kbps (48kHz/24-bit) DD AC3 5.1 448Kbps
DISC INFO:
Disc Title:     BluScenes Фрактальный план Blu-Ray(1080p)
Disc Size:      21 748 755 214 bytes
Protection:     AACS
BD-Java:        No
BDInfo:         0.5.8
PLAYLIST REPORT:
Name:                   00003.MPLS
Length:                 0:29:11.332 (h:m:s.ms)
Size:                   8 881 661 952 bytes
Total Bitrate:          40,57 Mbps
VIDEO:
Codec                   Bitrate             Description
-----                   -------             -----------
MPEG-4 AVC Video        31178 kbps          1080p / 23,976 fps / 16:9 / High Profile 4.1
AUDIO:
Codec                           Language        Bitrate         Description
-----                           --------        -------         -----------
DTS-HD Master Audio             English         6713 kbps       7.1 / 48 kHz / 6713 kbps / 24-bit (DTS Core: 5.1 / 48 kHz / 1509 kbps / 24-bit)
Dolby Digital Audio             English         448 kbps        5.1 / 48 kHz / 448 kbps
Dolby Digital Audio             English         224 kbps        2.0 / 48 kHz / 224 kbps
FILES:
Name            Time In         Length          Size            Total Bitrate
----            -------         ------          ----            -------------
00003.M2TS      0:00:00.000     0:29:11.332     8 881 661 952   40 571
CHAPTERS:
Number          Time In         Length          Avg Video Rate  Max 1-Sec Rate  Max 1-Sec Time  Max 5-Sec Rate  Max 5-Sec Time  Max 10Sec Rate  Max 10Sec Time  Avg Frame Size  Max Frame Size  Max Frame Time
------          -------         ------          --------------  --------------  --------------  --------------  --------------  --------------  --------------  --------------  --------------  --------------
1               0:00:00.000     0:29:11.332     31 178 kbps     51 933 kbps     00:02:06.167    42 559 kbps     00:00:02.377    38 267 kbps     00:16:13.514    162 549 bytes   820 640 bytes   00:02:07.126
STREAM DIAGNOSTICS:
File            PID             Type            Codec           Language                Seconds                 Bitrate                 Bytes           Packets
----            ---             ----            -----           --------                --------------          --------------          -------------   -----
00003.M2TS      4113 (0x1011)   0x1B            AVC                                     1751,250                31 180                  6 825 423 463   37 119 462
00003.M2TS      4352 (0x1100)   0x86            DTS-HD MA       eng (English)           1751,250                6 713                   1 469 499 760   8 259 567
00003.M2TS      4353 (0x1101)   0x81            AC3             eng (English)           1751,250                448                     98 074 368      547 290
00003.M2TS      4354 (0x1102)   0x81            AC3             eng (English)           1751,250                224                     49 037 184      273 645
QUICK SUMMARY:
Disc Title: BluScenes Фрактальный план Blu-Ray(1080p)
Disc Size: 21 748 755 214 bytes
Protection: AACS
BD-Java: No
Playlist: 00003.MPLS
Size: 8 881 661 952 bytes
Length: 0:29:11.332
Total Bitrate: 40,57 Mbps
Video: MPEG-4 AVC Video / 31178 kbps / 1080p / 23,976 fps / 16:9 / High Profile 4.1
Audio: English / DTS-HD Master Audio / 7.1 / 48 kHz / 6713 kbps / 24-bit (DTS Core: 5.1 / 48 kHz / 1509 kbps / 24-bit)
Audio: English / Dolby Digital Audio / 5.1 / 48 kHz / 448 kbps
Audio: English / Dolby Digital Audio / 2.0 / 48 kHz / 224 kbps
********************
PLAYLIST: 00004.MPLS
********************
Total   Video
Title                                                           Codec   Length  Movie Size      Disc Size       Bitrate Bitrate Main Audio Track                          Secondary Audio Track
-----                                                           ------  ------- --------------  --------------  ------- ------- ------------------                        ---------------------
00004.MPLS                                                      AVC     0:00:47 122 019 840     21 748 755 214  20,69   19,77
DISC INFO:
Disc Title:     BluScenes Фрактальный план Blu-Ray(1080p)
Disc Size:      21 748 755 214 bytes
Protection:     AACS
BD-Java:        No
BDInfo:         0.5.8
PLAYLIST REPORT:
Name:                   00004.MPLS
Length:                 0:00:47.172 (h:m:s.ms)
Size:                   122 019 840 bytes
Total Bitrate:          20,69 Mbps
VIDEO:
Codec                   Bitrate             Description
-----                   -------             -----------
MPEG-4 AVC Video        19770 kbps          1080p / 23,976 fps / 16:9 / High Profile 4.1
FILES:
Name            Time In         Length          Size            Total Bitrate
----            -------         ------          ----            -------------
00004.M2TS      0:00:00.000     0:00:47.172     122 019 840     20 694
CHAPTERS:
Number          Time In         Length          Avg Video Rate  Max 1-Sec Rate  Max 1-Sec Time  Max 5-Sec Rate  Max 5-Sec Time  Max 10Sec Rate  Max 10Sec Time  Avg Frame Size  Max Frame Size  Max Frame Time
------          -------         ------          --------------  --------------  --------------  --------------  --------------  --------------  --------------  --------------  --------------  --------------
1               0:00:00.000     0:00:47.172     19 770 kbps     20 000 kbps     00:00:33.241    20 000 kbps     00:00:29.237    20 000 kbps     00:00:24.232    103 074 bytes   104 271 bytes   00:00:00.542
STREAM DIAGNOSTICS:
File            PID             Type            Codec           Language                Seconds                 Bitrate                 Bytes           Packets
----            ---             ----            -----           --------                --------------          --------------          -------------   -----
00004.M2TS      4113 (0x1011)   0x1B            AVC                                     47,047                  19 823                  116 576 385     633 921
QUICK SUMMARY:
Disc Title: BluScenes Фрактальный план Blu-Ray(1080p)
Disc Size: 21 748 755 214 bytes
Protection: AACS
BD-Java: No
Playlist: 00004.MPLS
Size: 122 019 840 bytes
Length: 0:00:47.172
Total Bitrate: 20,69 Mbps
Video: MPEG-4 AVC Video / 19770 kbps / 1080p / 23,976 fps / 16:9 / High Profile 4.1

MediaInfo

Общее
Полное имя : D:\torrent\BluScenes Фрактальный план Blu-Ray(1080p)
Формат : Blu-ray movie
Продолжительность : 3 ч. 26 м.
Режим общего битрейта : Переменный
Общий поток : 17 бит/сек
Видео #1
Идентификатор : 4113 (0x1011)
Идентификатор меню : 1 (0x1)
Формат : AVC
Формат/Информация : Advanced Video Codec
Профиль формата : High@L4.1
Параметр CABAC формата : Да
Параметр ReFrames формата : 4 кадра
Идентификатор кодека : 27
Продолжительность : 1 м. 1 с.
Вид битрейта : Переменный
Максимальный битрейт : 35,0 Мбит/сек
Ширина : 1920 пикселей
Высота : 1080 пикселей
Соотношение сторон : 16:9
Частота кадров : 23,976 кадра/сек
Стандарт вещания : NTSC
Цветовое пространство : YUV
Субдискретизация насыщенности : 4:2:0
Битовая глубина : 8 бит
Основные цвета : BT.709
Характеристики трансфера : BT.709
Коэффициенты матрицы : BT.709
Оригинал : 00001.m2ts
Видео #2
Идентификатор : 4113 (0x1011)
Формат : AVC
Формат/Информация : Advanced Video Codec
Продолжительность : 1 м. 1 с.
Ширина : 1920 пикселей
Высота : 1080 пикселей
Соотношение сторон : 16:9
Частота кадров : 23,976 кадра/сек
Видео #3
Идентификатор : 4113 (0x1011)
Формат : AVC
Формат/Информация : Advanced Video Codec
Продолжительность : 1 м. 1 с.
Ширина : 1920 пикселей
Высота : 1080 пикселей
Соотношение сторон : 16:9
Частота кадров : 23,976 кадра/сек
Видео #4
Идентификатор : 4113 (0x1011)
Формат : AVC
Формат/Информация : Advanced Video Codec
Продолжительность : 1 м. 1 с.
Ширина : 1920 пикселей
Высота : 1080 пикселей
Соотношение сторон : 16:9
Частота кадров : 23,976 кадра/сек
Видео #5
Идентификатор : 4113 (0x1011)
Формат : AVC
Формат/Информация : Advanced Video Codec
Продолжительность : 1 м. 1 с.
Ширина : 1920 пикселей
Высота : 1080 пикселей
Соотношение сторон : 16:9
Частота кадров : 23,976 кадра/сек
Видео #6
Идентификатор : 4113 (0x1011)
Формат : AVC
Формат/Информация : Advanced Video Codec
Продолжительность : 1 м. 1 с.
Ширина : 1920 пикселей
Высота : 1080 пикселей
Соотношение сторон : 16:9
Частота кадров : 23,976 кадра/сек
Видео #7
Идентификатор : 4113 (0x1011)
Формат : AVC
Формат/Информация : Advanced Video Codec
Продолжительность : 1 м. 1 с.
Ширина : 1920 пикселей
Высота : 1080 пикселей
Соотношение сторон : 16:9
Частота кадров : 23,976 кадра/сек
Видео #8
Идентификатор : 4113 (0x1011)
Формат : AVC
Формат/Информация : Advanced Video Codec
Продолжительность : 1 м. 1 с.
Ширина : 1920 пикселей
Высота : 1080 пикселей
Соотношение сторон : 16:9
Частота кадров : 23,976 кадра/сек
Видео #9
Идентификатор : 4113 (0x1011)
Формат : AVC
Формат/Информация : Advanced Video Codec
Продолжительность : 1 м. 1 с.
Ширина : 1920 пикселей
Высота : 1080 пикселей
Соотношение сторон : 16:9
Частота кадров : 23,976 кадра/сек
Видео #10
Идентификатор : 4113 (0x1011)
Формат : AVC
Формат/Информация : Advanced Video Codec
Продолжительность : 1 м. 1 с.
Ширина : 1920 пикселей
Высота : 1080 пикселей
Соотношение сторон : 16:9
Частота кадров : 23,976 кадра/сек
Видео #11
Идентификатор : 4113 (0x1011)
Формат : AVC
Формат/Информация : Advanced Video Codec
Продолжительность : 1 м. 1 с.
Ширина : 1920 пикселей
Высота : 1080 пикселей
Соотношение сторон : 16:9
Частота кадров : 23,976 кадра/сек
Видео #12
Идентификатор : 4113 (0x1011)
Формат : AVC
Формат/Информация : Advanced Video Codec
Продолжительность : 1 м. 1 с.
Ширина : 1920 пикселей
Высота : 1080 пикселей
Соотношение сторон : 16:9
Частота кадров : 23,976 кадра/сек
Видео #13
Идентификатор : 4113 (0x1011)
Формат : AVC
Формат/Информация : Advanced Video Codec
Продолжительность : 1 м. 1 с.
Ширина : 1920 пикселей
Высота : 1080 пикселей
Соотношение сторон : 16:9
Частота кадров : 23,976 кадра/сек
Видео #14
Идентификатор : 4113 (0x1011)
Формат : AVC
Формат/Информация : Advanced Video Codec
Продолжительность : 1 м. 1 с.
Ширина : 1920 пикселей
Высота : 1080 пикселей
Соотношение сторон : 16:9
Частота кадров : 23,976 кадра/сек
Видео #15
Идентификатор : 4113 (0x1011)
Формат : AVC
Формат/Информация : Advanced Video Codec
Продолжительность : 1 м. 1 с.
Ширина : 1920 пикселей
Высота : 1080 пикселей
Соотношение сторон : 16:9
Частота кадров : 23,976 кадра/сек
Видео #16
Идентификатор : 4113 (0x1011)
Формат : AVC
Формат/Информация : Advanced Video Codec
Продолжительность : 1 м. 1 с.
Ширина : 1920 пикселей
Высота : 1080 пикселей
Соотношение сторон : 16:9
Частота кадров : 23,976 кадра/сек
Видео #17
Идентификатор : 4113 (0x1011)
Формат : AVC
Формат/Информация : Advanced Video Codec
Продолжительность : 1 м. 1 с.
Ширина : 1920 пикселей
Высота : 1080 пикселей
Соотношение сторон : 16:9
Частота кадров : 23,976 кадра/сек
Видео #18
Идентификатор : 4113 (0x1011)
Формат : AVC
Формат/Информация : Advanced Video Codec
Продолжительность : 1 м. 1 с.
Ширина : 1920 пикселей
Высота : 1080 пикселей
Соотношение сторон : 16:9
Частота кадров : 23,976 кадра/сек
Видео #19
Идентификатор : 4113 (0x1011)
Формат : AVC
Формат/Информация : Advanced Video Codec
Продолжительность : 1 м. 1 с.
Ширина : 1920 пикселей
Высота : 1080 пикселей
Соотношение сторон : 16:9
Частота кадров : 23,976 кадра/сек
Видео #20
Идентификатор : 4113 (0x1011)
Формат : AVC
Формат/Информация : Advanced Video Codec
Продолжительность : 1 м. 1 с.
Ширина : 1920 пикселей
Высота : 1080 пикселей
Соотношение сторон : 16:9
Частота кадров : 23,976 кадра/сек
Видео #21
Идентификатор : 4113 (0x1011)
Формат : AVC
Формат/Информация : Advanced Video Codec
Продолжительность : 1 м. 1 с.
Ширина : 1920 пикселей
Высота : 1080 пикселей
Соотношение сторон : 16:9
Частота кадров : 23,976 кадра/сек
Видео #22
Идентификатор : 4113 (0x1011)
Формат : AVC
Формат/Информация : Advanced Video Codec
Продолжительность : 1 м. 1 с.
Ширина : 1920 пикселей
Высота : 1080 пикселей
Соотношение сторон : 16:9
Частота кадров : 23,976 кадра/сек
Видео #23
Идентификатор : 4113 (0x1011)
Формат : AVC
Формат/Информация : Advanced Video Codec
Продолжительность : 1 м. 1 с.
Ширина : 1920 пикселей
Высота : 1080 пикселей
Соотношение сторон : 16:9
Частота кадров : 23,976 кадра/сек
Аудио #1
Идентификатор : 4352 (0x1100)
Идентификатор меню : 1 (0x1)
Формат : DTS
Формат/Информация : Digital Theater Systems
Профиль формата : MA / Core
Режим : 16
Параметр Endianness формата : Big
Режим смешивания : Stream extension
Идентификатор кодека : 134
Продолжительность : 1 м. 1 с.
Вид битрейта : Переменный
Битрейт : Неизвестно / 1509 Кбит/сек
Каналы : 8 каналов / 6 каналов
Расположение каналов : Front: L C R, Side: L R, Back: L R, LFE / Front: L C R, Side: L R, LFE
Частота : 48,0 КГц
Битовая глубина : 24 бит
Метод сжатия : Без потерь / Lossy
Язык : English
Оригинал : 00001.m2ts
Аудио #2
Идентификатор : 4353 (0x1101)
Идентификатор меню : 1 (0x1)
Формат : AC-3
Формат/Информация : Audio Coding 3
Расширение режима : CM (complete main)
Параметр Endianness формата : Big
Идентификатор кодека : 129
Продолжительность : 1 м. 1 с.
Вид битрейта : Постоянный
Битрейт : 448 Кбит/сек
Каналы : 6 каналов
Расположение каналов : Front: L C R, Side: L R, LFE
Частота : 48,0 КГц
Битовая глубина : 16 бит
Метод сжатия : С потерями
Размер потока : 3,31 Мбайт (1%)
Язык : English
dialnorm : -31
dialnorm/String : -31 dB
compr : -0.28
compr/String : -0.28 dB
bsid : 8
dialnorm_Average : -31
dialnorm_Average/String : -31 dB
dialnorm_Minimum : -31
dialnorm_Minimum/String : -31 dB
dialnorm_Maximum : -31
dialnorm_Maximum/String : -31 dB
dialnorm_Count : 302
compr_Average : -0.66
compr_Average/String : -0.66 dB
compr_Minimum : -4.08
compr_Minimum/String : -4.08 dB
compr_Maximum : -0.28
compr_Maximum/String : -0.28 dB
compr_Count : 302
Оригинал : 00001.m2ts
Аудио #3
Идентификатор : 4354 (0x1102)
Идентификатор меню : 1 (0x1)
Формат : AC-3
Формат/Информация : Audio Coding 3
Расширение режима : CM (complete main)
Параметр Endianness формата : Big
Идентификатор кодека : 129
Продолжительность : 1 м. 1 с.
Вид битрейта : Постоянный
Битрейт : 224 Кбит/сек
Каналы : 2 канала
Расположение каналов : Front: L R
Частота : 48,0 КГц
Битовая глубина : 16 бит
Метод сжатия : С потерями
Размер потока : 1,65 Мбайт (1%)
Язык : English
dsurmod : 0
dialnorm : -31
dialnorm/String : -31 dB
compr : -0.28
compr/String : -0.28 dB
bsid : 8
dialnorm_Average : -31
dialnorm_Average/String : -31 dB
dialnorm_Minimum : -31
dialnorm_Minimum/String : -31 dB
dialnorm_Maximum : -31
dialnorm_Maximum/String : -31 dB
dialnorm_Count : 292
compr_Average : -0.61
compr_Average/String : -0.61 dB
compr_Minimum : -4.08
compr_Minimum/String : -4.08 dB
compr_Maximum : -0.28
compr_Maximum/String : -0.28 dB
compr_Count : 292
Оригинал : 00001.m2ts
Аудио #4
Идентификатор : 4352 (0x1100)
Формат : DTS
Формат/Информация : Digital Theater Systems
Профиль формата : MA
Продолжительность : 1 м. 1 с.
Частота : 48,0 КГц
Метод сжатия : С потерями
Язык : English
Аудио #5
Идентификатор : 4353 (0x1101)
Формат : AC-3
Формат/Информация : Audio Coding 3
Продолжительность : 1 м. 1 с.
Частота : 48,0 КГц
Метод сжатия : С потерями
Язык : English
Аудио #6
Идентификатор : 4354 (0x1102)
Формат : AC-3
Формат/Информация : Audio Coding 3
Продолжительность : 1 м. 1 с.
Каналы : 2 канала
Частота : 48,0 КГц
Метод сжатия : С потерями
Язык : English
Аудио #7
Идентификатор : 4352 (0x1100)
Формат : DTS
Формат/Информация : Digital Theater Systems
Профиль формата : MA
Продолжительность : 1 м. 1 с.
Частота : 48,0 КГц
Метод сжатия : С потерями
Язык : English
Аудио #8
Идентификатор : 4353 (0x1101)
Формат : AC-3
Формат/Информация : Audio Coding 3
Продолжительность : 1 м. 1 с.
Частота : 48,0 КГц
Метод сжатия : С потерями
Язык : English
Аудио #9
Идентификатор : 4354 (0x1102)
Формат : AC-3
Формат/Информация : Audio Coding 3
Продолжительность : 1 м. 1 с.
Каналы : 2 канала
Частота : 48,0 КГц
Метод сжатия : С потерями
Язык : English
Аудио #10
Идентификатор : 4352 (0x1100)
Формат : DTS
Формат/Информация : Digital Theater Systems
Профиль формата : MA
Продолжительность : 1 м. 1 с.
Частота : 48,0 КГц
Метод сжатия : С потерями
Язык : English
Аудио #11
Идентификатор : 4353 (0x1101)
Формат : AC-3
Формат/Информация : Audio Coding 3
Продолжительность : 1 м. 1 с.
Частота : 48,0 КГц
Метод сжатия : С потерями
Язык : English
Аудио #12
Идентификатор : 4354 (0x1102)
Формат : AC-3
Формат/Информация : Audio Coding 3
Продолжительность : 1 м. 1 с.
Каналы : 2 канала
Частота : 48,0 КГц
Метод сжатия : С потерями
Язык : English
Аудио #13
Идентификатор : 4352 (0x1100)
Формат : DTS
Формат/Информация : Digital Theater Systems
Профиль формата : MA
Продолжительность : 1 м. 1 с.
Частота : 48,0 КГц
Метод сжатия : С потерями
Язык : English
Аудио #14
Идентификатор : 4353 (0x1101)
Формат : AC-3
Формат/Информация : Audio Coding 3
Продолжительность : 1 м. 1 с.
Частота : 48,0 КГц
Метод сжатия : С потерями
Язык : English
Аудио #15
Идентификатор : 4354 (0x1102)
Формат : AC-3
Формат/Информация : Audio Coding 3
Продолжительность : 1 м. 1 с.
Каналы : 2 канала
Частота : 48,0 КГц
Метод сжатия : С потерями
Язык : English
Аудио #16
Идентификатор : 4352 (0x1100)
Формат : DTS
Формат/Информация : Digital Theater Systems
Профиль формата : MA
Продолжительность : 1 м. 1 с.
Частота : 48,0 КГц
Метод сжатия : С потерями
Язык : English
Аудио #17
Идентификатор : 4353 (0x1101)
Формат : AC-3
Формат/Информация : Audio Coding 3
Продолжительность : 1 м. 1 с.
Частота : 48,0 КГц
Метод сжатия : С потерями
Язык : English
Аудио #18
Идентификатор : 4354 (0x1102)
Формат : AC-3
Формат/Информация : Audio Coding 3
Продолжительность : 1 м. 1 с.
Каналы : 2 канала
Частота : 48,0 КГц
Метод сжатия : С потерями
Язык : English
Аудио #19
Идентификатор : 4352 (0x1100)
Формат : DTS
Формат/Информация : Digital Theater Systems
Профиль формата : MA
Продолжительность : 1 м. 1 с.
Частота : 48,0 КГц
Метод сжатия : С потерями
Язык : English
Аудио #20
Идентификатор : 4353 (0x1101)
Формат : AC-3
Формат/Информация : Audio Coding 3
Продолжительность : 1 м. 1 с.
Частота : 48,0 КГц
Метод сжатия : С потерями
Язык : English
Аудио #21
Идентификатор : 4354 (0x1102)
Формат : AC-3
Формат/Информация : Audio Coding 3
Продолжительность : 1 м. 1 с.
Каналы : 2 канала
Частота : 48,0 КГц
Метод сжатия : С потерями
Язык : English
Аудио #22
Идентификатор : 4352 (0x1100)
Формат : DTS
Формат/Информация : Digital Theater Systems
Профиль формата : MA
Продолжительность : 1 м. 1 с.
Частота : 48,0 КГц
Метод сжатия : С потерями
Язык : English
Аудио #23
Идентификатор : 4353 (0x1101)
Формат : AC-3
Формат/Информация : Audio Coding 3
Продолжительность : 1 м. 1 с.
Частота : 48,0 КГц
Метод сжатия : С потерями
Язык : English
Аудио #24
Идентификатор : 4354 (0x1102)
Формат : AC-3
Формат/Информация : Audio Coding 3
Продолжительность : 1 м. 1 с.
Каналы : 2 канала
Частота : 48,0 КГц
Метод сжатия : С потерями
Язык : English

Скриншоты



[Цитировать]



Показать сообщения:    

Текущее время: 08-Дек 21:14

Часовой пояс: UTC + 3


Вы не можете начинать темы
Вы не можете отвечать на сообщения
Вы не можете редактировать свои сообщения
Вы не можете удалять свои сообщения
Вы не можете голосовать в опросах
Вы не можете прикреплять файлы к сообщениям
Вы не можете скачивать файлы

!ВНИМАНИЕ!
Сайт не предоставляет электронные версии произведений, а занимается лишь коллекционированием и каталогизацией ссылок, присылаемых и публикуемых на форуме нашими читателями. Если вы являетесь правообладателем какого-либо представленного материала и не желаете, чтобы ссылка на него находилась в нашем каталоге, свяжитесь с нами, и мы незамедлительно удалим ее. Файлы для обмена на трекере предоставлены пользователями сайта, и администрация не несет ответственности за их содержание. Просьба не заливать файлы, защищенные авторскими правами, а также файлы нелегального содержания!