[ Сегодня идет свободное скачивание без начисления Download ]


Статистика раздачи
Нет
 
   
 
Top  
 
 
Планета-океан / Planet Ocean Год выпуска: 2012
Страна: Франция
Жанр: Документальный
Продолжительность: 01:29:14
Перевод: Одноголосый закадровый
Доп. инфо о переводе: В.Курдов
Русские субтитры: есть
Режиссер: Ян Артус Бертранд, Michael Pitiot
Описание: Можем ли мы представить себе фильм, изменивший взгляд людей, смотрящих на океан? Можем ли мы просто объяснить величайшие природные тайны нашей планеты? И, наконец, можем ли мы помочь нашим детям верить в лучший и более устойчивый мир завтра? Этот фильм повествует о самых удивительных и самых страшных переживаний человека нашего времени. Снятый в экстремальных географических условиях по всему миру, фильм описывает современную одиссею людей, и призывет всё человечество уважать мир, в котором мы живём...
Дополнительная информация: Сохранены оригинальные чаптеры как на Blu-ray.
К сожалению, оригинальная дорога испорчена не аккуратным наложением голоса. В скором времени должна выйти европейская лицензия, если там будет лучше, то сделаю пересведение.
Исходный диск приобретен в рамках "Копилка: Помоги с Blu-ray". Благодарим: LibrarianA, Kacok_321, jezburg68, Turko, Воваростов, gelom, Кириллка и DeTorquemada.
Перевод и озвучивание осуществлены в рамках сервиса "Озвучивание". Спонсоры: LibrarianA, Kacok_321, Virusoff, Turko, tambov68, farmazon, Воваростов, dim78, neprichem, Snow_Leopard, jezburg68, user_hdclub, tarasco, cat_davinchi, banan58, DeTorquemada, RAUL, Seriy2000, Insider1.

Тип релиза: BDRip 720p
Контейнер: MKV
Видео: MPEG-4 AVC/H.264, 1280 х 720 (16:9), 25,000 кадров/сек, 7628 Кбит/сек, 0.331 бит/пиксель
Аудио: Russian, Digital Theater Systems, 48,0 КГц, 1509 Кбит/сек, 6 каналов
Аудио 2: French, Digital Theater Systems, 48,0 КГц, 768 Кбит/сек, 6 каналов
Субтитры: Русские, французкие

MediaInfo

Общее
Уникальный идентификатор : 231219204644332240842287979396350807091 (0xADF332F1488A9ABCAAB24D2EE7070C33)
Полное имя : E:\неоформлені\Planet.Ocean.2012.720p.BluRay.Rus.Fre.HDCLUB.mkv
Формат : Matroska
Версия формата : Version 2
Размер файла : 6,27 Гбайт
Продолжительность : 1 ч. 28 м.
Общий поток : 10,1 Мбит/сек
Название фильма : Planet Ocean (2012) - Release for HDCLUB
Дата кодирования : UTC 2013-02-14 21:03:56
Программа кодирования : mkvmerge v3.4.0 ('Rapunzel') built on May 15 2010 09:38:20
Библиотека кодирования : libebml v0.8.0 + libmatroska v0.9.0
Видео
Идентификатор : 1
Формат : AVC
Формат/Информация : Advanced Video Codec
Профиль формата : High@L4.1
Параметр CABAC формата : Да
Параметр ReFrames формата : 7 кадров
Идентификатор кодека : V_MPEG4/ISO/AVC
Продолжительность : 1 ч. 28 м.
Битрейт : 7628 Кбит/сек
Ширина : 1280 пикселей
Высота : 720 пикселей
Соотношение сторон : 16:9
Режим частоты кадров : Постоянный
Частота кадров : 25,000 кадров/сек
Цветовое пространство : YUV
Субдискретизация насыщенности : 4:2:0
Битовая глубина : 8 бит
Тип развёртки : Прогрессивная
Бит/(Пиксели*Кадры) : 0.331
Размер потока : 4,73 Гбайт (75%)
Заголовок : Release for HDCLUB
Библиотека кодирования : x264 core 115 r1995 c1e60b9
Настройки программы : cabac=1 / ref=7 / deblock=1:-3:-3 / analyse=0x3:0x113 / me=umh / subme=10 / psy=1 / psy_rd=1.00:0.00 / mixed_ref=1 / me_range=24 / chroma_me=1 / trellis=2 / 8x8dct=1 / cqm=0 / deadzone=21,11 / fast_pskip=0 / chroma_qp_offset=-2 / threads=6 / sliced_threads=0 / nr=0 / decimate=0 / interlaced=0 / bluray_compat=0 / constrained_intra=0 / bframes=7 / b_pyramid=2 / b_adapt=2 / b_bias=0 / direct=3 / weightb=1 / open_gop=0 / weightp=2 / keyint=250 / keyint_min=25 / scenecut=40 / intra_refresh=0 / rc_lookahead=50 / rc=crf / mbtree=1 / crf=18.0 / qcomp=0.75 / qpmin=0 / qpmax=69 / qpstep=4 / vbv_maxrate=50000 / vbv_bufsize=62500 / crf_max=0.0 / nal_hrd=none / ip_ratio=1.40 / aq=1:0.80
Язык : French
Default : Нет
Forced : Нет
Аудио #1
Идентификатор : 2
Формат : DTS
Формат/Информация : Digital Theater Systems
Режим : 16
Параметр Endianness формата : Big
Идентификатор кодека : A_DTS
Продолжительность : 1 ч. 28 м.
Вид битрейта : Постоянный
Битрейт : 1509 Кбит/сек
Каналы : 6 каналов
Расположение каналов : Front: L C R, Side: L R, LFE
Частота : 48,0 КГц
Битовая глубина : 24 бит
Метод сжатия : С потерями
Размер потока : 959 Мбайт (15%)
Заголовок : DTS 5.1ch 1536 kbps - Закадровый, В.Курдов
Язык : Russian
Default : Да
Forced : Да
Аудио #2
Идентификатор : 3
Формат : DTS
Формат/Информация : Digital Theater Systems
Режим : 16
Параметр Endianness формата : Big
Идентификатор кодека : A_DTS
Продолжительность : 1 ч. 28 м.
Вид битрейта : Постоянный
Битрейт : 768 Кбит/сек
Каналы : 6 каналов
Расположение каналов : Front: L C R, Side: L R, LFE
Частота : 48,0 КГц
Битовая глубина : 24 бит
Метод сжатия : С потерями
Задержка видео : 11 мс.
Размер потока : 488 Мбайт (8%)
Заголовок : DTS 5.1ch 1536 kbps
Язык : French
Default : Нет
Forced : Нет
Текст #1
Идентификатор : 4
Формат : UTF-8
Идентификатор кодека : S_TEXT/UTF8
Идентификатор кодека/Информация : UTF-8 Plain Text
Язык : Russian
Default : Нет
Forced : Нет
Текст #2
Идентификатор : 5
Формат : UTF-8
Идентификатор кодека : S_TEXT/UTF8
Идентификатор кодека/Информация : UTF-8 Plain Text
Язык : French
Default : Нет
Forced : Нет
Меню
00:00:00.000 : en:00:00:00.000
00:08:58.840 : en:00:08:58.840
00:17:52.560 : en:00:17:52.560
00:28:26.960 : en:00:28:26.960
00:39:40.640 : en:00:39:40.640
00:51:13.320 : en:00:51:13.320
00:56:11.600 : en:00:56:11.600
01:05:40.360 : en:01:05:40.360
01:16:31.920 : en:01:16:31.920
01:22:50.560 : en:01:22:50.560

Скриншоты

[Цитировать]



Показать сообщения:    

Текущее время: 27-Май 16:02

Часовой пояс: UTC + 6


Вы не можете начинать темы
Вы не можете отвечать на сообщения
Вы не можете редактировать свои сообщения
Вы не можете удалять свои сообщения
Вы не можете голосовать в опросах
Вы не можете прикреплять файлы к сообщениям
Вы не можете скачивать файлы

!ВНИМАНИЕ!
Сайт не предоставляет электронные версии произведений, а занимается лишь коллекционированием и каталогизацией ссылок, присылаемых и публикуемых на форуме нашими читателями. Если вы являетесь правообладателем какого-либо представленного материала и не желаете, чтобы ссылка на него находилась в нашем каталоге, свяжитесь с нами, и мы незамедлительно удалим ее. Файлы для обмена на трекере предоставлены пользователями сайта, и администрация не несет ответственности за их содержание. Просьба не заливать файлы, защищенные авторскими правами, а также файлы нелегального содержания!