[ Сегодня идет свободное скачивание без начисления Download ]


Статистика раздачи
Нет
 
   
 
Top  
 
 
-Lacrimosa - Revolution (Limited Edition Digipack) (2012)- Год Выпуска: 2012
Жанр: Gothic Metal
Продолжительность: 00:59:03
Кодек: APE
Битрейт: Lossless
Тип рипа: image+.cue
Треклист:
01. Irgendein Arsch ist immer unterwegs (05:00)
02. If The World Stood Still A Day (03:34)
03. Verloren (07:29)
04. This Is The Night (05:25)
05. Interlude - Feuerzug (Part I) (00:45)
06. Feuerzug (Part II) (04:40)
07. Refugium (04:42)
08. Weil du Hilfe brauchst (06:02)
09. Rote Sinfonie (11:03)
10. Revolution (05:22)
11. Morning Glory (Bonustrack) (04:57)

Отчет EAC:

Exact Audio Copy V0.99 prebeta 5 from 4. May 2009
Отчёт EAC об извлечении, выполненном 19. февраля 2013, 20:17
Lacrimosa / Revolution
Дисковод: ASUS    DRW-24B5ST   Adapter: 0  ID: 2
Режим чтения                 : Достоверность
Использование точного потока : Да
Отключение кэша аудио        : Да
Использование указателей C2  : Нет
Коррекция смещения при чтении                     : 6
Способность читать области Lead-in и Lead-out     : Нет
Заполнение пропущенных сэмплов тишиной            : Да
Удаление блоков с тишиной в начале и конце        : Нет
При вычислениях CRC использовались нулевые сэмплы : Нет
Интерфейс                                         : Встроенный Win32-интерфейс для Win NT/2000
Выходной формат : Внутренние WAV-операции
Формат сэмплов  : 44.100 Гц; 16 бит; стерео
TOC извлечённого CD
     Трек |   Старт  | Длительность | Начальный сектор | Конечный сектор
    ---------------------------------------------------------------------
       1  |  0:00.00 |    5:00.14   |           0      |      22513
       2  |  5:00.14 |    3:34.31   |       22514      |      38594
       3  |  8:34.45 |    7:29.15   |       38595      |      72284
       4  | 16:03.60 |    5:25.14   |       72285      |      96673
       5  | 21:28.74 |    0:45.09   |       96674      |     100057
       6  | 22:14.08 |    4:40.54   |      100058      |     121111
       7  | 26:54.62 |    4:42.64   |      121112      |     142325
       8  | 31:37.51 |    6:02.49   |      142326      |     169524
       9  | 37:40.25 |   11:03.45   |      169525      |     219294
      10  | 48:43.70 |    5:22.52   |      219295      |     243496
      11  | 54:06.47 |    4:57.21   |      243497      |     265792
Характеристики диапазона извлечения и сообщения об ошибках
Выбранный диапазон
     Имя файла E:\2013\Lacrimosa\Ape\Lacrimosa 2012 'Revolution'.wav
     Пиковый уровень 100.0 %
     Качество диапазона 100.0 %
     CRC копии 28072C03
     Копирование... OK
Ошибок не произошло
AccurateRip: сводка
Трек  1  нет в базе данных
Трек  2  нет в базе данных
Трек  3  нет в базе данных
Трек  4  нет в базе данных
Трек  5  нет в базе данных
Трек  6  нет в базе данных
Трек  7  нет в базе данных
Трек  8  нет в базе данных
Трек  9  нет в базе данных
Трек 10  нет в базе данных
Трек 11  нет в базе данных
Ни одного трека нет в базе AccurateRip
Конец отчёта
------------------------------------------------------------
Exact Audio Copy V0.99 prebeta 5 from 4. May 2009
Отчёт EAC об извлечении, выполненном 20. февраля 2013, 21:57
Lacrimosa / Revolution
Дисковод: ASUS    DRW-24B5ST   Adapter: 0  ID: 2
Режим чтения                 : Достоверность
Использование точного потока : Да
Отключение кэша аудио        : Да
Использование указателей C2  : Нет
Коррекция смещения при чтении                     : 6
Способность читать области Lead-in и Lead-out     : Нет
Заполнение пропущенных сэмплов тишиной            : Да
Удаление блоков с тишиной в начале и конце        : Нет
При вычислениях CRC использовались нулевые сэмплы : Нет
Интерфейс                                         : Встроенный Win32-интерфейс для Win NT/2000
Выходной формат : Внутренние WAV-операции
Формат сэмплов  : 44.100 Гц; 16 бит; стерео
TOC извлечённого CD
     Трек |   Старт  | Длительность | Начальный сектор | Конечный сектор
    ---------------------------------------------------------------------
       1  |  0:00.00 |    5:00.14   |           0      |      22513
       2  |  5:00.14 |    3:34.31   |       22514      |      38594
       3  |  8:34.45 |    7:29.15   |       38595      |      72284
       4  | 16:03.60 |    5:25.14   |       72285      |      96673
       5  | 21:28.74 |    0:45.09   |       96674      |     100057
       6  | 22:14.08 |    4:40.54   |      100058      |     121111
       7  | 26:54.62 |    4:42.64   |      121112      |     142325
       8  | 31:37.51 |    6:02.49   |      142326      |     169524
       9  | 37:40.25 |   11:03.45   |      169525      |     219294
      10  | 48:43.70 |    5:22.52   |      219295      |     243496
      11  | 54:06.47 |    4:57.21   |      243497      |     265792
Характеристики диапазона извлечения и сообщения об ошибках
Выбранный диапазон
     Имя файла E:\2013\Lacrimosa\2012 'Revolution' - Limited Edition Digipack\Ape\Lacrimosa 2012 'Revolution' - Limited Edition Digipack.wav
     Пиковый уровень 100.0 %
     Качество диапазона 100.0 %
     CRC копии 28072C03
     Копирование... OK
Ошибок не произошло
AccurateRip: сводка
Трек  1  нет в базе данных
Трек  2  нет в базе данных
Трек  3  нет в базе данных
Трек  4  нет в базе данных
Трек  5  нет в базе данных
Трек  6  нет в базе данных
Трек  7  нет в базе данных
Трек  8  нет в базе данных
Трек  9  нет в базе данных
Трек 10  нет в базе данных
Трек 11  нет в базе данных
Ни одного трека нет в базе AccurateRip
Конец отчёта

CUE:

REM GENRE "Gothic Metal"
REM DATE 2012
REM DISCID 980DD70B
REM COMMENT "ExactAudioCopy v0.99pb5"
PERFORMER "Lacrimosa"
TITLE "Revolution"
FILE "Lacrimosa 2012 'Revolution' - Limited Edition Digipack.ape" WAVE
  TRACK 01 AUDIO
    TITLE "Irgendein Arsch ist immer unterwegs"
    PERFORMER "Lacrimosa"
    INDEX 01 00:00:00
  TRACK 02 AUDIO
    TITLE "If The World Stood Still A Day"
    PERFORMER "Lacrimosa"
    INDEX 01 05:00:14
  TRACK 03 AUDIO
    TITLE "Verloren"
    PERFORMER "Lacrimosa"
    INDEX 01 08:34:45
  TRACK 04 AUDIO
    TITLE "This Is The Night"
    PERFORMER "Lacrimosa"
    INDEX 01 16:03:60
  TRACK 05 AUDIO
    TITLE "Interlude - Feuerzug (Part I)"
    PERFORMER "Lacrimosa"
    INDEX 01 21:28:74
  TRACK 06 AUDIO
    TITLE "Feuerzug (Part II)"
    PERFORMER "Lacrimosa"
    INDEX 01 22:14:08
  TRACK 07 AUDIO
    TITLE "Refugium"
    PERFORMER "Lacrimosa"
    INDEX 01 26:54:62
  TRACK 08 AUDIO
    TITLE "Weil du Hilfe brauchst"
    PERFORMER "Lacrimosa"
    INDEX 01 31:37:51
  TRACK 09 AUDIO
    TITLE "Rote Sinfonie"
    PERFORMER "Lacrimosa"
    INDEX 01 37:40:25
  TRACK 10 AUDIO
    TITLE "Revolution"
    PERFORMER "Lacrimosa"
    INDEX 01 48:43:70
  TRACK 11 AUDIO
    TITLE "Morning Glory (Bonustrack)"
    PERFORMER "Lacrimosa"
    INDEX 01 54:06:47

Отчет auCDtect Task manager:

?-----------------------
DON'T MODIFY THIS FILE
-----------------------
PERFORMER: auCDtect Task Manager, ver. 1.5.1RC6 build 1.5.1.7
Copyright (c) 2008-2010 y-soft. All rights reserved
http://y-soft.org
ANALYZER: auCDtect: CD records authenticity detector, version 0.8.2
Copyright (c) 2004 Oleg Berngardt. All rights reserved.
Copyright (c) 2004 Alexander Djourik. All rights reserved.
FILE: Lacrimosa 2012 'Revolution' - Limited Edition Digipack.ape
  Size: 371680376 Hash: A633CA47CB67EB28BFFC698F72CF31A3 Accuracy: -m0
  Conclusion: CDDA 100%
  Signature: FDD64003E600E20C26D766AA9C85EF790F7FCC34
Время раздачи: с 09:00 до 23:00 (UTC\GTM+2)

[Цитировать]



Показать сообщения:    

Текущее время: 09-Дек 16:24

Часовой пояс: UTC + 3


Вы не можете начинать темы
Вы не можете отвечать на сообщения
Вы не можете редактировать свои сообщения
Вы не можете удалять свои сообщения
Вы не можете голосовать в опросах
Вы не можете прикреплять файлы к сообщениям
Вы не можете скачивать файлы

!ВНИМАНИЕ!
Сайт не предоставляет электронные версии произведений, а занимается лишь коллекционированием и каталогизацией ссылок, присылаемых и публикуемых на форуме нашими читателями. Если вы являетесь правообладателем какого-либо представленного материала и не желаете, чтобы ссылка на него находилась в нашем каталоге, свяжитесь с нами, и мы незамедлительно удалим ее. Файлы для обмена на трекере предоставлены пользователями сайта, и администрация не несет ответственности за их содержание. Просьба не заливать файлы, защищенные авторскими правами, а также файлы нелегального содержания!