[ Сегодня идет свободное скачивание без начисления Download ]


Статистика раздачи
Нет
 
   
 
Top  
 
 
-Stratovarius - Nemesis [Taiwan Edition Digipack] (2013)- Год: 2013
Жанр: Power Metal
Продолжительность: 01:05:59
Страна: Finland
Кодек: APE (image+.cue)
Битрейт: Lossless-Трек лист:
01 Abandon
02 Unbreakable
03 Stand My Ground
04 Halcyon Days
05 Fantasy
06 Out Of The Fog
07 Castles In The Air
08 Dragons
09 One Must Fall
10 Fireborn
11 Hunter
12 If The Story Is Over
13 Nemesis- -

Отчёт ЕАС:

Exact Audio Copy V1.0 beta 3 from 29. August 2011
EAC extraction logfile from 13. February 2013, 14:14
Stratovarius / Nemesis
Used drive  : HL-DT-STDVDRAM GSA-T50N   Adapter: 0  ID: 0
Read mode               : Secure
Utilize accurate stream : Yes
Defeat audio cache      : Yes
Make use of C2 pointers : No
Read offset correction                      : 667
Overread into Lead-In and Lead-Out          : No
Fill up missing offset samples with silence : Yes
Delete leading and trailing silent blocks   : No
Null samples used in CRC calculations       : Yes
Used interface                              : Native Win32 interface for Win NT & 2000
Used output format : Internal WAV Routines
Sample format      : 44.100 Hz; 16 Bit; Stereo
TOC of the extracted CD
     Track |   Start  |  Length  | Start sector | End sector
    ---------------------------------------------------------
        1  |  0:00.00 |  4:51.68 |         0    |    21892
        2  |  4:51.68 |  4:36.40 |     21893    |    42632
        3  |  9:28.33 |  4:14.24 |     42633    |    61706
        4  | 13:42.57 |  5:29.47 |     61707    |    86428
        5  | 19:12.29 |  4:19.09 |     86429    |   105862
        6  | 23:31.38 |  6:58.01 |    105863    |   137213
        7  | 30:29.39 |  6:02.71 |    137214    |   164434
        8  | 36:32.35 |  4:04.11 |    164435    |   182745
        9  | 40:36.46 |  4:27.03 |    182746    |   202773
       10  | 45:03.49 |  4:45.20 |    202774    |   224168
       11  | 49:48.69 |  3:27.29 |    224169    |   239722
       12  | 53:16.23 |  6:06.41 |    239723    |   267213
       13  | 59:22.64 |  6:33.49 |    267214    |   296737
Range status and errors
Selected range
     Filename C:\Stratovarius - Nemesis.wav
     Peak level 100.0 %
     Extraction speed 4.3 X
     Range quality 100.0 %
     Copy CRC 76AE6F3A
     Copy OK
No errors occurred
AccurateRip summary
Track  1  not present in database
Track  2  not present in database
Track  3  not present in database
Track  4  not present in database
Track  5  not present in database
Track  6  not present in database
Track  7  not present in database
Track  8  not present in database
Track  9  not present in database
Track 10  not present in database
Track 11  not present in database
Track 12  not present in database
Track 13  not present in database
None of the tracks are present in the AccurateRip database
End of status report

Отчёт audiochecker:

AUDIOCHECKER v2.0 beta (build 457) - by Dester - [url=mailto:opdester@freemail.hu]opdester@freemail.hu[/url]
~~~~~~~~~~~~~~~~~~~~~~~~~~~~~~~~~~
-=== DO NOT EDIT THIS FILE! ===-
Path: ...\Stratovarius - Nemesis (Taiwan Edition Digipack) (2013) Lossless
1 -=- Stratovarius - Nemesis (Taiwan Edition Digipack) (2013).ape -=- CDDA (100%)
135438628
Время раздачи: с 00:00 до первых скачавших

[Цитировать]



Показать сообщения:    

Текущее время: 27-Фев 23:58

Часовой пояс: UTC + 3


Вы не можете начинать темы
Вы не можете отвечать на сообщения
Вы не можете редактировать свои сообщения
Вы не можете удалять свои сообщения
Вы не можете голосовать в опросах
Вы не можете прикреплять файлы к сообщениям
Вы не можете скачивать файлы

!ВНИМАНИЕ!
Сайт не предоставляет электронные версии произведений, а занимается лишь коллекционированием и каталогизацией ссылок, присылаемых и публикуемых на форуме нашими читателями. Если вы являетесь правообладателем какого-либо представленного материала и не желаете, чтобы ссылка на него находилась в нашем каталоге, свяжитесь с нами, и мы незамедлительно удалим ее. Файлы для обмена на трекере предоставлены пользователями сайта, и администрация не несет ответственности за их содержание. Просьба не заливать файлы, защищенные авторскими правами, а также файлы нелегального содержания!