[ Сегодня идет свободное скачивание без начисления Download ]


Статистика раздачи
Нет
 
   
 
Top  
 
 
-U.D.O. - 8 Albums Anniversary Edition (2013) (AFM Records AFM 427-2 - 436-2 EU)- Жанр: Heavy Metal | Страна: Германия |Лейбл: AFM Records | Продолжительность: 08:25:39 | Catalog CDs: AFM 427-2 • AFM 428-2 • AFM 429-2 • AFM 430-2 • AFM 431-2 • AFM 432-2 • AFM 433-2 • AFM 436-2 | Кодек: FLAC | Битрейт: Lossless | Тип рипа: image+*.cue -Год: 1987
Аудио-кодек: FLAC
Продолжительность: 01:03:23-01 | Animal House | 04:22
02 | Go Back To Hell | 04:35
03 | They Want War | 04:13
04 | Black Widow | 04:34
05 | In The Darkness | 04:07
06 | Lay Down The Law | 03:50
07 | We Want It Loud | 04:09
08 | Hot Tonight | 04:46
09 | Warrior | 04:25
10 | Coming Home | 03:44
11 | Run For Cover | 04:49
12 | Animal House (Live) / Bonus Track | 03:57
13 | They Want War (Live) / Bonus Track | 05:42
14 | In The Darkness (Live) / Bonus Track | 06:05

Отчет EAC:

?Exact Audio Copy V1.0 beta 3 from 29. August 2011
EAC extraction logfile from 16. February 2013, 11:25
U.D.O. / Animal House
Used drive  : PLEXTOR BD-R  PX-B950SA   Adapter: 6  ID: 0
Read mode               : Secure
Utilize accurate stream : Yes
Defeat audio cache      : Yes
Make use of C2 pointers : No
Read offset correction                      : 6
Overread into Lead-In and Lead-Out          : No
Fill up missing offset samples with silence : Yes
Delete leading and trailing silent blocks   : No
Null samples used in CRC calculations       : Yes
Used interface                              : Native Win32 interface for Win NT & 2000
Used output format : Internal WAV Routines
Sample format      : 44.100 Hz; 16 Bit; Stereo
TOC of the extracted CD
     Track |   Start  |  Length  | Start sector | End sector
    ---------------------------------------------------------
        1  |  0:00.00 |  4:22.53 |         0    |    19702
        2  |  4:22.53 |  4:35.11 |     19703    |    40338
        3  |  8:57.64 |  4:13.63 |     40339    |    59376
        4  | 13:11.52 |  4:34.41 |     59377    |    79967
        5  | 17:46.18 |  4:07.09 |     79968    |    98501
        6  | 21:53.27 |  3:50.06 |     98502    |   115757
        7  | 25:43.33 |  4:09.41 |    115758    |   134473
        8  | 29:52.74 |  4:46.51 |    134474    |   155974
        9  | 34:39.50 |  4:25.38 |    155975    |   175887
       10  | 39:05.13 |  3:44.24 |    175888    |   192711
       11  | 42:49.37 |  4:49.01 |    192712    |   214387
       12  | 47:38.38 |  3:57.52 |    214388    |   232214
       13  | 51:36.15 |  5:42.13 |    232215    |   257877
       14  | 57:18.28 |  6:05.13 |    257878    |   285265
       15  | 65:55.41 | 10:48.18 |    296666    |   345283
Range status and errors
Selected range
     Filename C:\Users\Meijin\Desktop\Lossless Galaxy Rip by ALLexxess\UDO\1987 Animal House (AFM Records Anniversary Edition 2013)\U.D.O. - Animal House.wav
     Peak level 97.7 %
     Extraction speed 8.3 X
     Range quality 100.0 %
     Test CRC 39432DAC
     Copy CRC 39432DAC
     Copy OK
No errors occurred
AccurateRip summary
Track  1  not present in database
Track  2  not present in database
Track  3  not present in database
Track  4  not present in database
Track  5  not present in database
Track  6  not present in database
Track  7  not present in database
Track  8  not present in database
Track  9  not present in database
Track 10  not present in database
Track 11  not present in database
Track 12  not present in database
Track 13  not present in database
Track 14  not present in database
None of the tracks are present in the AccurateRip database
End of status report
==== Log checksum 07C4CAFD3D2D1018D5A5446FA3789B51348EE94CD22167D89C62E616931BF2BD ====

CUE:

REM GENRE "Heavy Metal"
REM DATE 1987
REM DISCID E011FB0F
REM COMMENT "ExactAudioCopy v1.0b3"
PERFORMER "U.D.O."
TITLE "Animal House"
FILE "U.D.O. - Animal House.flac" WAVE
  TRACK 01 AUDIO
    TITLE "Animal House"
    PERFORMER "U.D.O."
    INDEX 01 00:00:00
  TRACK 02 AUDIO
    TITLE "Go Back To Hell"
    PERFORMER "U.D.O."
    INDEX 01 04:22:53
  TRACK 03 AUDIO
    TITLE "They Want War"
    PERFORMER "U.D.O."
    INDEX 01 08:57:64
  TRACK 04 AUDIO
    TITLE "Black Widow"
    PERFORMER "U.D.O."
    INDEX 01 13:11:52
  TRACK 05 AUDIO
    TITLE "In The Darkness"
    PERFORMER "U.D.O."
    INDEX 01 17:46:18
  TRACK 06 AUDIO
    TITLE "Lay Down The Law"
    PERFORMER "U.D.O."
    INDEX 01 21:53:27
  TRACK 07 AUDIO
    TITLE "We Want It Loud"
    PERFORMER "U.D.O."
    INDEX 01 25:43:33
  TRACK 08 AUDIO
    TITLE "Hot Tonight"
    PERFORMER "U.D.O."
    INDEX 01 29:52:74
  TRACK 09 AUDIO
    TITLE "Warrior"
    PERFORMER "U.D.O."
    INDEX 01 34:39:50
  TRACK 10 AUDIO
    TITLE "Coming Home"
    PERFORMER "U.D.O."
    INDEX 01 39:05:13
  TRACK 11 AUDIO
    TITLE "Run For Cover"
    PERFORMER "U.D.O."
    INDEX 01 42:49:37
  TRACK 12 AUDIO
    TITLE "Animal House (Live) / Bonus Track"
    PERFORMER "U.D.O."
    INDEX 00 47:36:38
    INDEX 01 47:38:38
  TRACK 13 AUDIO
    TITLE "They Want War (Live) / Bonus Track"
    PERFORMER "U.D.O."
    INDEX 01 51:36:15
  TRACK 14 AUDIO
    TITLE "In The Darkness (Live) / Bonus Track"
    PERFORMER "U.D.O."
    INDEX 00 57:16:29
    INDEX 01 57:18:28

Отчет auCDtect Task manager:

?-----------------------
DON'T MODIFY THIS FILE
-----------------------
PERFORMER: auCDtect Task Manager, ver. 1.5.1RC6 build 1.5.1.7
Copyright (c) 2008-2010 y-soft. All rights reserved
http://y-soft.org
ANALYZER: auCDtect: CD records authenticity detector, version 0.8.2
Copyright (c) 2004 Oleg Berngardt. All rights reserved.
Copyright (c) 2004 Alexander Djourik. All rights reserved.
FILE: U.D.O. - Animal House.flac
  Size: 464922482 Hash: 805C006CCB2AEF223B389F3C7303806B Accuracy: -m0
  Conclusion: CDDA 99%
  Signature: 8FF8E60169B231754C8CFC1B6FE8C521CC6849DA
-Год: 1989
Аудио-кодек: FLAC
Продолжительность: 00:45:17-01 | Don't Look Back | 03:12
02 | Break The Rules | 04:02
03 | We're History | 03:32
04 | Painted Love | 04:59
05 | Mean Machine | 03:55
06 | Dirty Boys | 03:49
07 | Streets On Fire | 03:52
08 | Lost Passion | 04:12
09 | Sweet Little Child | 04:51
10 | Catch My Fall | 03:58
11 | Still In Love With You | 00:50
12 | Break The Rules (Live) / Bonus Track | 04:00

Отчет EAC:

?Exact Audio Copy V1.0 beta 3 from 29. August 2011
EAC extraction logfile from 16. February 2013, 10:35
U.D.O. / Mean Machine
Used drive  : PLEXTOR BD-R  PX-B950SA   Adapter: 6  ID: 0
Read mode               : Secure
Utilize accurate stream : Yes
Defeat audio cache      : Yes
Make use of C2 pointers : No
Read offset correction                      : 6
Overread into Lead-In and Lead-Out          : No
Fill up missing offset samples with silence : Yes
Delete leading and trailing silent blocks   : No
Null samples used in CRC calculations       : Yes
Used interface                              : Native Win32 interface for Win NT & 2000
Used output format : Internal WAV Routines
Sample format      : 44.100 Hz; 16 Bit; Stereo
TOC of the extracted CD
     Track |   Start  |  Length  | Start sector | End sector
    ---------------------------------------------------------
        1  |  0:00.00 |  3:12.53 |         0    |    14452
        2  |  3:12.53 |  4:02.38 |     14453    |    32640
        3  |  7:15.16 |  3:32.41 |     32641    |    48581
        4  | 10:47.57 |  4:59.41 |     48582    |    71047
        5  | 15:47.23 |  3:55.04 |     71048    |    88676
        6  | 19:42.27 |  3:49.13 |     88677    |   105864
        7  | 23:31.40 |  3:52.01 |    105865    |   123265
        8  | 27:23.41 |  4:12.49 |    123266    |   142214
        9  | 31:36.15 |  4:51.63 |    142215    |   164102
       10  | 36:28.03 |  3:58.06 |    164103    |   181958
       11  | 40:26.09 |  0:50.36 |    181959    |   185744
       12  | 41:16.45 |  4:00.30 |    185745    |   203774
       13  | 47:49.00 | 12:59.18 |    215175    |   273617
Range status and errors
Selected range
     Filename C:\Users\Meijin\Desktop\Lossless Galaxy Rip by ALLexxess\UDO\1989 Mean Machine (AFM Records Anniversary Edition 2013)\U.D.O. - Mean Machine.wav
     Peak level 97.7 %
     Extraction speed 3.2 X
     Range quality 100.0 %
     Test CRC FC120A33
     Copy CRC FC120A33
     Copy OK
No errors occurred
AccurateRip summary
Track  1  not present in database
Track  2  not present in database
Track  3  not present in database
Track  4  not present in database
Track  5  not present in database
Track  6  not present in database
Track  7  not present in database
Track  8  not present in database
Track  9  not present in database
Track 10  not present in database
Track 11  not present in database
Track 12  not present in database
None of the tracks are present in the AccurateRip database
End of status report
==== Log checksum 83A5E57AC407BFB0007982342AEDE114258492C745B92B71AF5A9F261CFA314F ====

CUE:

REM GENRE "Heavy Metal"
REM DATE 1989
REM DISCID CB0E400D
REM COMMENT "ExactAudioCopy v1.0b3"
PERFORMER "U.D.O."
TITLE "Mean Machine"
FILE "U.D.O. - Mean Machine.flac" WAVE
  TRACK 01 AUDIO
    TITLE "Don't Look Back"
    PERFORMER "U.D.O."
    INDEX 01 00:00:00
  TRACK 02 AUDIO
    TITLE "Break The Rules"
    PERFORMER "U.D.O."
    INDEX 00 03:12:21
    INDEX 01 03:12:53
  TRACK 03 AUDIO
    TITLE "We're History"
    PERFORMER "U.D.O."
    INDEX 01 07:15:16
  TRACK 04 AUDIO
    TITLE "Painted Love"
    PERFORMER "U.D.O."
    INDEX 01 10:47:57
  TRACK 05 AUDIO
    TITLE "Mean Machine"
    PERFORMER "U.D.O."
    INDEX 01 15:47:23
  TRACK 06 AUDIO
    TITLE "Dirty Boys"
    PERFORMER "U.D.O."
    INDEX 01 19:42:27
  TRACK 07 AUDIO
    TITLE "Streets On Fire"
    PERFORMER "U.D.O."
    INDEX 01 23:31:40
  TRACK 08 AUDIO
    TITLE "Lost Passion"
    PERFORMER "U.D.O."
    INDEX 01 27:23:41
  TRACK 09 AUDIO
    TITLE "Sweet Little Child"
    PERFORMER "U.D.O."
    INDEX 01 31:36:15
  TRACK 10 AUDIO
    TITLE "Catch My Fall"
    PERFORMER "U.D.O."
    INDEX 01 36:28:03
  TRACK 11 AUDIO
    TITLE "Still In Love With You"
    PERFORMER "U.D.O."
    INDEX 01 40:26:09
  TRACK 12 AUDIO
    TITLE "Break The Rules (Live) / Bonus Track"
    PERFORMER "U.D.O."
    INDEX 00 41:14:45
    INDEX 01 41:16:45

Отчет auCDtect Task manager:

?-----------------------
DON'T MODIFY THIS FILE
-----------------------
PERFORMER: auCDtect Task Manager, ver. 1.5.1RC6 build 1.5.1.7
Copyright (c) 2008-2010 y-soft. All rights reserved
http://y-soft.org
ANALYZER: auCDtect: CD records authenticity detector, version 0.8.2
Copyright (c) 2004 Oleg Berngardt. All rights reserved.
Copyright (c) 2004 Alexander Djourik. All rights reserved.
FILE: U.D.O. - Mean Machine.flac
  Size: 322637983 Hash: 6CA4CA829EFD55729BD325548D8CDF85 Accuracy: -m0
  Conclusion: CDDA 100%
  Signature: 60B050C69EEFC17AC951F995CD529A568A3A936F
-Год: 1990
Аудио-кодек: FLAC
Продолжительность: 01:11:50-01 | Heart Of Gold | 05:01
02 | Blitz Of Lightning | 04:24
03 | System Of Life | 04:13
04 | Faceless World | 06:32
05 | Stranger | 05:16
06 | Restricted Area | 03:12
07 | Living On A Frontline | 04:18
08 | Trip To Nowhere | 04:44
09 | Born To Run | 03:27
10 | Can't Get Enough | 03:24
11 | Unspoken Words | 05:14
12 | Future Land | 05:14
13 | Living On A Frontline (Live) / Bonus Track | 11:46
14 | Heart Of Gold (Live) / Bonus Track | 04:56

Отчет EAC:

?Exact Audio Copy V1.0 beta 3 from 29. August 2011
EAC extraction logfile from 15. February 2013, 23:12
U.D.O. / Faceless World
Used drive  : PLEXTOR BD-R  PX-B950SA   Adapter: 6  ID: 0
Read mode               : Secure
Utilize accurate stream : Yes
Defeat audio cache      : Yes
Make use of C2 pointers : No
Read offset correction                      : 6
Overread into Lead-In and Lead-Out          : No
Fill up missing offset samples with silence : Yes
Delete leading and trailing silent blocks   : No
Null samples used in CRC calculations       : Yes
Used interface                              : Native Win32 interface for Win NT & 2000
Used output format : Internal WAV Routines
Sample format      : 44.100 Hz; 16 Bit; Stereo
TOC of the extracted CD
     Track |   Start  |  Length  | Start sector | End sector
    ---------------------------------------------------------
        1  |  0:00.00 |  5:01.21 |         0    |    22595
        2  |  5:01.21 |  4:24.48 |     22596    |    42443
        3  |  9:25.69 |  4:13.46 |     42444    |    61464
        4  | 13:39.40 |  6:32.54 |     61465    |    90918
        5  | 20:12.19 |  5:16.73 |     90919    |   114691
        6  | 25:29.17 |  3:12.74 |    114692    |   129165
        7  | 28:42.16 |  4:18.58 |    129166    |   148573
        8  | 33:00.74 |  4:44.69 |    148574    |   169942
        9  | 37:45.68 |  3:27.55 |    169943    |   185522
       10  | 41:13.48 |  3:24.51 |    185523    |   200873
       11  | 44:38.24 |  5:14.74 |    200874    |   224497
       12  | 49:53.23 |  5:14.03 |    224498    |   248050
       13  | 55:07.26 | 11:46.40 |    248051    |   301040
       14  | 66:53.66 |  4:56.73 |    301041    |   323313
       15  | 74:22.64 |  5:02.69 |    334714    |   357432
Range status and errors
Selected range
     Filename C:\Users\Meijin\Desktop\Lossless Galaxy Rip by ALLexxess\UDO\1990 Faceless World (AFM Records Anniversary Edition 2013)\U.D.O. - Faceless World.wav
     Peak level 97.7 %
     Extraction speed 3.9 X
     Range quality 100.0 %
     Test CRC 41D752BC
     Copy CRC 41D752BC
     Copy OK
No errors occurred
AccurateRip summary
Track  1  not present in database
Track  2  not present in database
Track  3  not present in database
Track  4  not present in database
Track  5  not present in database
Track  6  not present in database
Track  7  not present in database
Track  8  not present in database
Track  9  not present in database
Track 10  not present in database
Track 11  not present in database
Track 12  not present in database
Track 13  not present in database
Track 14  not present in database
None of the tracks are present in the AccurateRip database
End of status report
==== Log checksum FB572BDAB041D6F46FD1D30432802A8FDBDB3DC387CAB3E744F2200A75316147 ====

CUE:

REM GENRE "Heavy Metal"
REM DATE 1990
REM DISCID D0129D0F
REM COMMENT "ExactAudioCopy v1.0b3"
PERFORMER "U.D.O."
TITLE "Faceless World"
FILE "U.D.O. - Faceless World.flac" WAVE
  TRACK 01 AUDIO
    TITLE "Heart Of Gold"
    PERFORMER "U.D.O."
    INDEX 01 00:00:00
  TRACK 02 AUDIO
    TITLE "Blitz Of Lightning"
    PERFORMER "U.D.O."
    INDEX 01 05:01:21
  TRACK 03 AUDIO
    TITLE "System Of Life"
    PERFORMER "U.D.O."
    INDEX 01 09:25:69
  TRACK 04 AUDIO
    TITLE "Faceless World"
    PERFORMER "U.D.O."
    INDEX 01 13:39:40
  TRACK 05 AUDIO
    TITLE "Stranger"
    PERFORMER "U.D.O."
    INDEX 01 20:12:19
  TRACK 06 AUDIO
    TITLE "Restricted Area"
    PERFORMER "U.D.O."
    INDEX 01 25:29:17
  TRACK 07 AUDIO
    TITLE "Living On A Frontline"
    PERFORMER "U.D.O."
    INDEX 01 28:42:16
  TRACK 08 AUDIO
    TITLE "Trip To Nowhere"
    PERFORMER "U.D.O."
    INDEX 01 33:00:74
  TRACK 09 AUDIO
    TITLE "Born To Run"
    PERFORMER "U.D.O."
    INDEX 01 37:45:68
  TRACK 10 AUDIO
    TITLE "Can't Get Enough"
    PERFORMER "U.D.O."
    INDEX 00 41:13:16
    INDEX 01 41:13:48
  TRACK 11 AUDIO
    TITLE "Unspoken Words"
    PERFORMER "U.D.O."
    INDEX 01 44:38:24
  TRACK 12 AUDIO
    TITLE "Future Land"
    PERFORMER "U.D.O."
    INDEX 01 49:53:23
  TRACK 13 AUDIO
    TITLE "Living On A Frontline (Live) / Bonus Track"
    PERFORMER "U.D.O."
    INDEX 00 55:05:26
    INDEX 01 55:07:26
  TRACK 14 AUDIO
    TITLE "Heart Of Gold (Live) / Bonus Track"
    PERFORMER "U.D.O."
    INDEX 01 66:53:66

Отчет auCDtect Task manager:

?-----------------------
DON'T MODIFY THIS FILE
-----------------------
PERFORMER: auCDtect Task Manager, ver. 1.5.1RC6 build 1.5.1.7
Copyright (c) 2008-2010 y-soft. All rights reserved
http://y-soft.org
ANALYZER: auCDtect: CD records authenticity detector, version 0.8.2
Copyright (c) 2004 Oleg Berngardt. All rights reserved.
Copyright (c) 2004 Alexander Djourik. All rights reserved.
FILE: U.D.O. - Faceless World.flac
  Size: 546484641 Hash: 64E559832F4CE04A3D7F6101396B7110 Accuracy: -m0
  Conclusion: CDDA 100%
  Signature: 4119E233D1CEEEAA0D8738BF811B3D18CA41DB66
-Год: 1991
Аудио-кодек: FLAC
Продолжительность: 00:42:38-01 | The Gutter (Instrumental) | 01:04
02 | Metal Eater | 03:42
03 | Thunderforce | 03:39
04 | Overloaded (Instrumental) | 01:04
05 | Burning Heart | 03:13
06 | Back In Pain | 03:46
07 | Timebomb | 03:57
08 | Powersquad | 04:12
09 | Kick In The Face | 03:46
10 | Soldiers Of Darkness | 04:11
11 | Metal Maniac Master Mind | 05:43
12 | Metal Eater (Live) / Bonus Track | 04:15

Отчет EAC:

?Exact Audio Copy V1.0 beta 3 from 29. August 2011
EAC extraction logfile from 15. February 2013, 22:17
U.D.O. / Timebomb
Used drive  : PLEXTOR BD-R  PX-B950SA   Adapter: 6  ID: 0
Read mode               : Secure
Utilize accurate stream : Yes
Defeat audio cache      : Yes
Make use of C2 pointers : No
Read offset correction                      : 6
Overread into Lead-In and Lead-Out          : No
Fill up missing offset samples with silence : Yes
Delete leading and trailing silent blocks   : No
Null samples used in CRC calculations       : Yes
Used interface                              : Native Win32 interface for Win NT & 2000
Used output format : Internal WAV Routines
Sample format      : 44.100 Hz; 16 Bit; Stereo
TOC of the extracted CD
     Track |   Start  |  Length  | Start sector | End sector
    ---------------------------------------------------------
        1  |  0:00.00 |  1:04.05 |         0    |     4804
        2  |  1:04.05 |  3:42.06 |      4805    |    21460
        3  |  4:46.11 |  3:39.39 |     21461    |    37924
        4  |  8:25.50 |  1:04.69 |     37925    |    42793
        5  |  9:30.44 |  3:13.47 |     42794    |    57315
        6  | 12:44.16 |  3:46.51 |     57316    |    74316
        7  | 16:30.67 |  3:57.22 |     74317    |    92113
        8  | 20:28.14 |  4:12.69 |     92114    |   111082
        9  | 24:41.08 |  3:46.56 |    111083    |   128088
       10  | 28:27.64 |  4:11.64 |    128089    |   146977
       11  | 32:39.53 |  5:43.15 |    146978    |   172717
       12  | 38:22.68 |  4:15.55 |    172718    |   191897
       13  | 45:10.48 | 15:51.30 |    203298    |   274652
Range status and errors
Selected range
     Filename C:\Users\Meijin\Desktop\Lossless Galaxy Rip by ALLexxess\UDO\1991 Timebomb (AFM Records Anniversary Edition 2013)\U.D.O. - Timebomb.wav
     Peak level 97.7 %
     Extraction speed 3.1 X
     Range quality 100.0 %
     Test CRC 2629A9F4
     Copy CRC 2629A9F4
     Copy OK
No errors occurred
AccurateRip summary
Track  1  not present in database
Track  2  not present in database
Track  3  not present in database
Track  4  not present in database
Track  5  not present in database
Track  6  not present in database
Track  7  not present in database
Track  8  not present in database
Track  9  not present in database
Track 10  not present in database
Track 11  not present in database
Track 12  not present in database
None of the tracks are present in the AccurateRip database
End of status report
==== Log checksum D1DE564BB7735A78FD868855D6FF8F2AA72669B5AD487D39431B176C2A5A1914 ====

CUE:

REM GENRE "Heavy Metal"
REM DATE 1991
REM DISCID AE0E4E0D
REM COMMENT "ExactAudioCopy v1.0b3"
PERFORMER "U.D.O."
TITLE "Timebomb"
FILE "U.D.O. - Timebomb.flac" WAVE
  TRACK 01 AUDIO
    TITLE "The Gutter (Instrumental)"
    PERFORMER "U.D.O."
    INDEX 01 00:00:00
  TRACK 02 AUDIO
    TITLE "Metal Eater"
    PERFORMER "U.D.O."
    INDEX 01 01:04:05
  TRACK 03 AUDIO
    TITLE "Thunderforce"
    PERFORMER "U.D.O."
    INDEX 01 04:46:11
  TRACK 04 AUDIO
    TITLE "Overloaded (Instrumental)"
    PERFORMER "U.D.O."
    INDEX 01 08:25:50
  TRACK 05 AUDIO
    TITLE "Burning Heart"
    PERFORMER "U.D.O."
    INDEX 01 09:30:44
  TRACK 06 AUDIO
    TITLE "Back In Pain"
    PERFORMER "U.D.O."
    INDEX 01 12:44:16
  TRACK 07 AUDIO
    TITLE "Timebomb"
    PERFORMER "U.D.O."
    INDEX 01 16:30:67
  TRACK 08 AUDIO
    TITLE "Powersquad"
    PERFORMER "U.D.O."
    INDEX 01 20:28:14
  TRACK 09 AUDIO
    TITLE "Kick In The Face"
    PERFORMER "U.D.O."
    INDEX 01 24:41:08
  TRACK 10 AUDIO
    TITLE "Soldiers Of Darkness"
    PERFORMER "U.D.O."
    INDEX 01 28:27:64
  TRACK 11 AUDIO
    TITLE "Metal Maniac Master Mind"
    PERFORMER "U.D.O."
    INDEX 01 32:39:53
  TRACK 12 AUDIO
    TITLE "Metal Eater (Live) / Bonus Track"
    PERFORMER "U.D.O."
    INDEX 00 38:20:68
    INDEX 01 38:22:68

Отчет auCDtect Task manager:

?-----------------------
DON'T MODIFY THIS FILE
-----------------------
PERFORMER: auCDtect Task Manager, ver. 1.5.1RC6 build 1.5.1.7
Copyright (c) 2008-2010 y-soft. All rights reserved
http://y-soft.org
ANALYZER: auCDtect: CD records authenticity detector, version 0.8.2
Copyright (c) 2004 Oleg Berngardt. All rights reserved.
Copyright (c) 2004 Alexander Djourik. All rights reserved.
FILE: U.D.O. - Timebomb.flac
  Size: 329901555 Hash: 448698223CAD1DE56FC07B4137D7141B Accuracy: -m0
  Conclusion: CDDA 100%
  Signature: 2983A9C24F2DBB56B5E90324049484BD17191DF8
-Год: 1997
Аудио-кодек: FLAC
Продолжительность: 01:10:40-01 | Independence Day | 06:04
02 | Two Faced Woman | 03:40
03 | Desperate Balls | 03:57
04 | The Punisher | 04:47
05 | Devil's Dice | 04:33
06 | Bad Luck | 04:57
07 | Preacher Of The Night | 04:47
08 | Hate Singer | 05:01
09 | Braindead Hero | 05:15
10 | Pray For The Hunted | 04:03
11 | The Healer | 06:11
12 | Independence Day (Live) / Bonus Track | 05:55
13 | Mad Dogs And Loaded Gun (Demo) / Bonus Track | 05:28
14 | Warcbild (Demo) / Bonus Track | 05:57

Отчет EAC:

?Exact Audio Copy V1.0 beta 3 from 29. August 2011
EAC extraction logfile from 11. February 2013, 21:18
U.D.O. / Solid
Used drive  : PLEXTOR BD-R  PX-B950SA   Adapter: 6  ID: 0
Read mode               : Secure
Utilize accurate stream : Yes
Defeat audio cache      : Yes
Make use of C2 pointers : No
Read offset correction                      : 6
Overread into Lead-In and Lead-Out          : No
Fill up missing offset samples with silence : Yes
Delete leading and trailing silent blocks   : No
Null samples used in CRC calculations       : Yes
Used interface                              : Native Win32 interface for Win NT & 2000
Used output format : Internal WAV Routines
Sample format      : 44.100 Hz; 16 Bit; Stereo
TOC of the extracted CD
     Track |   Start  |  Length  | Start sector | End sector
    ---------------------------------------------------------
        1  |  0:00.00 |  6:04.41 |         0    |    27340
        2  |  6:04.41 |  3:40.21 |     27341    |    43861
        3  |  9:44.62 |  3:57.03 |     43862    |    61639
        4  | 13:41.65 |  4:47.12 |     61640    |    83176
        5  | 18:29.02 |  4:33.43 |     83177    |   103694
        6  | 23:02.45 |  4:57.30 |    103695    |   125999
        7  | 28:00.00 |  4:47.11 |    126000    |   147535
        8  | 32:47.11 |  5:01.53 |    147536    |   170163
        9  | 37:48.64 |  5:15.19 |    170164    |   193807
       10  | 43:04.08 |  4:03.41 |    193808    |   212073
       11  | 47:07.49 |  6:11.09 |    212074    |   239907
       12  | 53:18.58 |  5:55.24 |    239908    |   266556
       13  | 59:14.07 |  5:28.30 |    266557    |   291186
       14  | 64:42.37 |  5:57.72 |    291187    |   318033
       15  | 73:12.34 |  5:20.51 |    329434    |   353484
Range status and errors
Selected range
     Filename C:\Users\Meijin\Desktop\Lossless Galaxy Rip by ALLexxess\UDO\1997 Solid (AFM Records Anniversary Edition 2013)\U.D.O. - Solid.wav
     Peak level 98.8 %
     Extraction speed 3.9 X
     Range quality 100.0 %
     Test CRC BAB4F728
     Copy CRC BAB4F728
     Copy OK
No errors occurred
AccurateRip summary
Track  1  not present in database
Track  2  not present in database
Track  3  not present in database
Track  4  not present in database
Track  5  not present in database
Track  6  not present in database
Track  7  not present in database
Track  8  not present in database
Track  9  not present in database
Track 10  not present in database
Track 11  not present in database
Track 12  not present in database
Track 13  not present in database
Track 14  not present in database
None of the tracks are present in the AccurateRip database
End of status report
==== Log checksum 6436764AC553EB666B928477B51F6FA60C1B30E42C96BEE516352AF3776F25E5 ====

CUE:

REM GENRE "Heavy Metal"
REM DATE 1997
REM DISCID E712690F
REM COMMENT "ExactAudioCopy v1.0b3"
PERFORMER "U.D.O."
TITLE "Solid"
FILE "U.D.O. - Solid.flac" WAVE
  TRACK 01 AUDIO
    TITLE "Independence Day"
    PERFORMER "U.D.O."
    INDEX 01 00:00:00
  TRACK 02 AUDIO
    TITLE "Two Faced Woman"
    PERFORMER "U.D.O."
    INDEX 00 06:02:41
    INDEX 01 06:04:41
  TRACK 03 AUDIO
    TITLE "Desperate Balls"
    PERFORMER "U.D.O."
    INDEX 00 09:42:62
    INDEX 01 09:44:62
  TRACK 04 AUDIO
    TITLE "The Punisher"
    PERFORMER "U.D.O."
    INDEX 00 13:39:65
    INDEX 01 13:41:65
  TRACK 05 AUDIO
    TITLE "Devil's Dice"
    PERFORMER "U.D.O."
    INDEX 00 18:28:36
    INDEX 01 18:29:02
  TRACK 06 AUDIO
    TITLE "Bad Luck"
    PERFORMER "U.D.O."
    INDEX 00 23:01:51
    INDEX 01 23:02:45
  TRACK 07 AUDIO
    TITLE "Preacher Of The Night"
    PERFORMER "U.D.O."
    INDEX 00 27:59:26
    INDEX 01 28:00:00
  TRACK 08 AUDIO
    TITLE "Hate Singer"
    PERFORMER "U.D.O."
    INDEX 00 32:45:11
    INDEX 01 32:47:11
  TRACK 09 AUDIO
    TITLE "Braindead Hero"
    PERFORMER "U.D.O."
    INDEX 00 37:46:64
    INDEX 01 37:48:64
  TRACK 10 AUDIO
    TITLE "Pray For The Hunted"
    PERFORMER "U.D.O."
    INDEX 00 43:02:08
    INDEX 01 43:04:08
  TRACK 11 AUDIO
    TITLE "The Healer"
    PERFORMER "U.D.O."
    INDEX 00 47:05:49
    INDEX 01 47:07:49
  TRACK 12 AUDIO
    TITLE "Independence Day (Live) / Bonus Track"
    PERFORMER "U.D.O."
    INDEX 00 53:16:60
    INDEX 01 53:18:58
  TRACK 13 AUDIO
    TITLE "Mad Dogs And Loaded Gun (Demo) / Bonus Track"
    PERFORMER "U.D.O."
    INDEX 00 59:12:10
    INDEX 01 59:14:07
  TRACK 14 AUDIO
    TITLE "Warcbild (Demo) / Bonus Track"
    PERFORMER "U.D.O."
    INDEX 00 64:40:37
    INDEX 01 64:42:37

Отчет auCDtect Task manager:

?-----------------------
DON'T MODIFY THIS FILE
-----------------------
PERFORMER: auCDtect Task Manager, ver. 1.5.1RC6 build 1.5.1.7
Copyright (c) 2008-2010 y-soft. All rights reserved
http://y-soft.org
ANALYZER: auCDtect: CD records authenticity detector, version 0.8.2
Copyright (c) 2004 Oleg Berngardt. All rights reserved.
Copyright (c) 2004 Alexander Djourik. All rights reserved.
FILE: U.D.O. - Solid.flac
  Size: 550746559 Hash: 1D3E15BC21C914ABF09F301CB5B4DF17 Accuracy: -m0
  Conclusion: CDDA 100%
  Signature: 6FEC39F16E3724E3CF6F04D6089C8CD39F9D81F6
-Год: 1998
Аудио-кодек: FLAC
Продолжительность: 01:14:07-01 | The Gate | 00:52
02 | Freelance Man | 04:26
03 | Way Of Life | 04:52
04 | No Limits | 04:01
05 | With A Vengeance | 05:28
06 | One Step To Fate | 05:13
07 | Backstreet Loner | 03:33
08 | Raise The Crown | 04:08
09 | Manhunt | 04:19
10 | Rated X | 04:00
11 | Lovemachine | 05:28
12 | I'm A Rebel | 02:23
13 | Azrael | 05:34
14 | No Limits (Live) / Bonus Track | 04:13
15 | The Key / Bonus Track | 04:10
16 | Azrael (Remix) / Bonus Track | 05:33
17 | Rated X (Demo) / Bonus Track | 03:07
18 | Tough Luck (Demo) / Bonus Track | 02:39

Отчет EAC:

?Exact Audio Copy V1.0 beta 3 from 29. August 2011
EAC extraction logfile from 11. February 2013, 19:55
U.D.O. / No Limits
Used drive  : PLEXTOR BD-R  PX-B950SA   Adapter: 6  ID: 0
Read mode               : Secure
Utilize accurate stream : Yes
Defeat audio cache      : Yes
Make use of C2 pointers : No
Read offset correction                      : 6
Overread into Lead-In and Lead-Out          : No
Fill up missing offset samples with silence : Yes
Delete leading and trailing silent blocks   : No
Null samples used in CRC calculations       : Yes
Used interface                              : Native Win32 interface for Win NT & 2000
Used output format : Internal WAV Routines
Sample format      : 44.100 Hz; 16 Bit; Stereo
TOC of the extracted CD
     Track |   Start  |  Length  | Start sector | End sector
    ---------------------------------------------------------
        1  |  0:00.00 |  0:52.17 |         0    |     3916
        2  |  0:52.17 |  4:26.58 |      3917    |    23924
        3  |  5:19.00 |  4:52.18 |     23925    |    45842
        4  | 10:11.18 |  4:01.74 |     45843    |    63991
        5  | 14:13.17 |  5:28.56 |     63992    |    88647
        6  | 19:41.73 |  5:13.03 |     88648    |   112125
        7  | 24:55.01 |  3:33.09 |    112126    |   128109
        8  | 28:28.10 |  4:08.73 |    128110    |   146782
        9  | 32:37.08 |  4:19.04 |    146783    |   166211
       10  | 36:56.12 |  4:00.26 |    166212    |   184237
       11  | 40:56.38 |  5:28.61 |    184238    |   208898
       12  | 46:25.24 |  2:23.63 |    208899    |   219686
       13  | 48:49.12 |  5:34.14 |    219687    |   244750
       14  | 54:23.26 |  4:13.00 |    244751    |   263725
       15  | 58:36.26 |  4:10.33 |    263726    |   282508
       16  | 62:46.59 |  5:33.14 |    282509    |   307497
       17  | 68:19.73 |  3:07.73 |    307498    |   321595
       18  | 71:27.71 |  2:39.40 |    321596    |   333560
Range status and errors
Selected range
     Filename C:\Users\Meijin\Desktop\Lossless Galaxy Rip by ALLexxess\UDO\1998 No Limits (AFM Records Anniversary Edition 2013)\U.D.O. - No Limits.wav
     Peak level 98.8 %
     Extraction speed 8.7 X
     Range quality 99.9 %
     Test CRC 23CAD84B
     Copy CRC 23CAD84B
     Copy OK
No errors occurred
AccurateRip summary
Track  1  not present in database
Track  2  not present in database
Track  3  not present in database
Track  4  not present in database
Track  5  not present in database
Track  6  not present in database
Track  7  not present in database
Track  8  not present in database
Track  9  not present in database
Track 10  not present in database
Track 11  not present in database
Track 12  not present in database
Track 13  not present in database
Track 14  not present in database
Track 15  not present in database
Track 16  not present in database
Track 17  not present in database
Track 18  not present in database
None of the tracks are present in the AccurateRip database
End of status report
==== Log checksum AB2BAF5C9094F803562B35BD7110AFB415270DEC0DFF85E46005290413231EC7 ====

CUE:

REM GENRE "Heavy Metal"
REM DATE 1998
REM DISCID 0E115F12
REM COMMENT "ExactAudioCopy v1.0b3"
PERFORMER "U.D.O."
TITLE "No Limits"
FILE "U.D.O. - No Limits.flac" WAVE
  TRACK 01 AUDIO
    TITLE "The Gate"
    PERFORMER "U.D.O."
    INDEX 01 00:00:00
  TRACK 02 AUDIO
    TITLE "Freelance Man"
    PERFORMER "U.D.O."
    INDEX 01 00:52:17
  TRACK 03 AUDIO
    TITLE "Way Of Life"
    PERFORMER "U.D.O."
    INDEX 00 05:17:00
    INDEX 01 05:19:00
  TRACK 04 AUDIO
    TITLE "No Limits"
    PERFORMER "U.D.O."
    INDEX 00 10:09:18
    INDEX 01 10:11:18
  TRACK 05 AUDIO
    TITLE "With A Vengeance"
    PERFORMER "U.D.O."
    INDEX 00 14:11:17
    INDEX 01 14:13:17
  TRACK 06 AUDIO
    TITLE "One Step To Fate"
    PERFORMER "U.D.O."
    INDEX 00 19:39:73
    INDEX 01 19:41:73
  TRACK 07 AUDIO
    TITLE "Backstreet Loner"
    PERFORMER "U.D.O."
    INDEX 00 24:53:01
    INDEX 01 24:55:01
  TRACK 08 AUDIO
    TITLE "Raise The Crown"
    PERFORMER "U.D.O."
    INDEX 00 28:26:10
    INDEX 01 28:28:10
  TRACK 09 AUDIO
    TITLE "Manhunt"
    PERFORMER "U.D.O."
    INDEX 00 32:35:08
    INDEX 01 32:37:08
  TRACK 10 AUDIO
    TITLE "Rated X"
    PERFORMER "U.D.O."
    INDEX 00 36:54:12
    INDEX 01 36:56:12
  TRACK 11 AUDIO
    TITLE "Lovemachine"
    PERFORMER "U.D.O."
    INDEX 00 40:54:38
    INDEX 01 40:56:38
  TRACK 12 AUDIO
    TITLE "I'm A Rebel"
    PERFORMER "U.D.O."
    INDEX 00 46:23:24
    INDEX 01 46:25:24
  TRACK 13 AUDIO
    TITLE "Azrael"
    PERFORMER "U.D.O."
    INDEX 00 48:47:12
    INDEX 01 48:49:12
  TRACK 14 AUDIO
    TITLE "No Limits (Live) / Bonus Track"
    PERFORMER "U.D.O."
    INDEX 00 54:21:26
    INDEX 01 54:23:26
  TRACK 15 AUDIO
    TITLE "The Key / Bonus Track"
    PERFORMER "U.D.O."
    INDEX 00 58:34:64
    INDEX 01 58:36:26
  TRACK 16 AUDIO
    TITLE "Azrael (Remix) / Bonus Track"
    PERFORMER "U.D.O."
    INDEX 00 62:45:27
    INDEX 01 62:46:59
  TRACK 17 AUDIO
    TITLE "Rated X (Demo) / Bonus Track"
    PERFORMER "U.D.O."
    INDEX 00 68:17:73
    INDEX 01 68:19:73
  TRACK 18 AUDIO
    TITLE "Tough Luck (Demo) / Bonus Track"
    PERFORMER "U.D.O."
    INDEX 00 71:25:71
    INDEX 01 71:27:71

Отчет auCDtect Task manager:

?-----------------------
DON'T MODIFY THIS FILE
-----------------------
PERFORMER: auCDtect Task Manager, ver. 1.5.1RC6 build 1.5.1.7
Copyright (c) 2008-2010 y-soft. All rights reserved
http://y-soft.org
ANALYZER: auCDtect: CD records authenticity detector, version 0.8.2
Copyright (c) 2004 Oleg Berngardt. All rights reserved.
Copyright (c) 2004 Alexander Djourik. All rights reserved.
FILE: U.D.O. - No Limits.flac
  Size: 594792180 Hash: 85F772AF7D8D8863D4420277242333A6 Accuracy: -m0
  Conclusion: CDDA 100%
  Signature: DC33F2AFCFC0FD3B55BED469E0DCC643231271DC
-Год: 1999
Аудио-кодек: FLAC
Продолжительность: 01:13:27-01 | Holy | 04:58
02 | Raiders Of Beyond | 04:13
03 | Shout It Out | 04:57
04 | Recall The Sin | 04:38
05 | Thunder In The Tower | 05:06
06 | Back Off | 03:05
07 | Friends Will Be Friends | 03:35
08 | State Run Operation | 03:53
09 | Danger | 03:25
10 | Ride The Storm | 04:00
11 | Cut Me Out | 04:01
12 | Holy (Live / Bonus Track) | 05:20
13 | Raiders Of Beyond (Live / Bonus Track) | 04:15
14 | Shout It Out (Live / Bonus Track) | 08:30
15 | Thunder In The Tower (Live / Bonus Track) | 04:53
16 | Recall The Sin (Live / Bonus Track) | 04:29

Отчет EAC:

?Exact Audio Copy V1.0 beta 3 from 29. August 2011
EAC extraction logfile from 10. February 2013, 20:26
U.D.O. / Holy
Used drive  : PLEXTOR BD-R  PX-B950SA   Adapter: 6  ID: 0
Read mode               : Secure
Utilize accurate stream : Yes
Defeat audio cache      : Yes
Make use of C2 pointers : No
Read offset correction                      : 6
Overread into Lead-In and Lead-Out          : No
Fill up missing offset samples with silence : Yes
Delete leading and trailing silent blocks   : No
Null samples used in CRC calculations       : Yes
Used interface                              : Native Win32 interface for Win NT & 2000
Used output format : Internal WAV Routines
Sample format      : 44.100 Hz; 16 Bit; Stereo
TOC of the extracted CD
     Track |   Start  |  Length  | Start sector | End sector
    ---------------------------------------------------------
        1  |  0:00.00 |  4:58.45 |         0    |    22394
        2  |  4:58.45 |  4:13.61 |     22395    |    41430
        3  |  9:12.31 |  4:57.56 |     41431    |    63761
        4  | 14:10.12 |  4:38.21 |     63762    |    84632
        5  | 18:48.33 |  5:06.69 |     84633    |   107651
        6  | 23:55.27 |  3:05.41 |    107652    |   121567
        7  | 27:00.68 |  3:35.36 |    121568    |   137728
        8  | 30:36.29 |  3:53.68 |    137729    |   155271
        9  | 34:30.22 |  3:25.34 |    155272    |   170680
       10  | 37:55.56 |  4:00.43 |    170681    |   188723
       11  | 41:56.24 |  4:01.26 |    188724    |   206824
       12  | 45:57.50 |  5:20.44 |    206825    |   230868
       13  | 51:18.19 |  4:15.29 |    230869    |   250022
       14  | 55:33.48 |  8:30.32 |    250023    |   288304
       15  | 64:04.05 |  4:53.31 |    288305    |   310310
       16  | 68:57.36 |  4:29.71 |    310311    |   330556
Range status and errors
Selected range
     Filename C:\Users\Meijin\Desktop\Lossless Galaxy Rip by ALLexxess\UDO\1999 Holy (AFM Records Anniversary Edition 2013)\U.D.O. - Holy.wav
     Peak level 98.8 %
     Extraction speed 8.8 X
     Range quality 100.0 %
     Test CRC D6167126
     Copy CRC D6167126
     Copy OK
No errors occurred
AccurateRip summary
Track  1  not present in database
Track  2  not present in database
Track  3  not present in database
Track  4  not present in database
Track  5  not present in database
Track  6  not present in database
Track  7  not present in database
Track  8  not present in database
Track  9  not present in database
Track 10  not present in database
Track 11  not present in database
Track 12  not present in database
Track 13  not present in database
Track 14  not present in database
Track 15  not present in database
Track 16  not present in database
None of the tracks are present in the AccurateRip database
End of status report
==== Log checksum 4A6F1276B9ED9AEEBC95AAEEE6CE8359467DA955BF22D420B60EF585EAFD4626 ====

CUE:

REM GENRE "Heavy Metal"
REM DATE 1999
REM DISCID D8113710
REM COMMENT "ExactAudioCopy v1.0b3"
PERFORMER "U.D.O."
TITLE "Holy"
FILE "U.D.O. - Holy.flac" WAVE
  TRACK 01 AUDIO
    TITLE "Holy"
    PERFORMER "U.D.O."
    INDEX 01 00:00:00
  TRACK 02 AUDIO
    TITLE "Raiders Of Beyond"
    PERFORMER "U.D.O."
    INDEX 00 04:56:45
    INDEX 01 04:58:45
  TRACK 03 AUDIO
    TITLE "Shout It Out"
    PERFORMER "U.D.O."
    INDEX 00 09:10:31
    INDEX 01 09:12:31
  TRACK 04 AUDIO
    TITLE "Recall The Sin"
    PERFORMER "U.D.O."
    INDEX 00 14:08:12
    INDEX 01 14:10:12
  TRACK 05 AUDIO
    TITLE "Thunder In The Tower"
    PERFORMER "U.D.O."
    INDEX 00 18:46:33
    INDEX 01 18:48:33
  TRACK 06 AUDIO
    TITLE "Back Off"
    PERFORMER "U.D.O."
    INDEX 00 23:53:27
    INDEX 01 23:55:27
  TRACK 07 AUDIO
    TITLE "Friends Will Be Friends"
    PERFORMER "U.D.O."
    INDEX 00 26:58:68
    INDEX 01 27:00:68
  TRACK 08 AUDIO
    TITLE "State Run Operation"
    PERFORMER "U.D.O."
    INDEX 00 30:34:29
    INDEX 01 30:36:29
  TRACK 09 AUDIO
    TITLE "Danger"
    PERFORMER "U.D.O."
    INDEX 00 34:28:22
    INDEX 01 34:30:22
  TRACK 10 AUDIO
    TITLE "Ride The Storm"
    PERFORMER "U.D.O."
    INDEX 00 37:53:56
    INDEX 01 37:55:56
  TRACK 11 AUDIO
    TITLE "Cut Me Out"
    PERFORMER "U.D.O."
    INDEX 00 41:54:24
    INDEX 01 41:56:24
  TRACK 12 AUDIO
    TITLE "Holy (Live / Bonus Track)"
    PERFORMER "U.D.O."
    INDEX 00 45:55:70
    INDEX 01 45:57:50
  TRACK 13 AUDIO
    TITLE "Raiders Of Beyond (Live / Bonus Track)"
    PERFORMER "U.D.O."
    INDEX 01 51:18:19
  TRACK 14 AUDIO
    TITLE "Shout It Out (Live / Bonus Track)"
    PERFORMER "U.D.O."
    INDEX 01 55:33:48
  TRACK 15 AUDIO
    TITLE "Thunder In The Tower (Live / Bonus Track)"
    PERFORMER "U.D.O."
    INDEX 01 64:04:05
  TRACK 16 AUDIO
    TITLE "Recall The Sin (Live / Bonus Track)"
    PERFORMER "U.D.O."
    INDEX 00 68:55:34
    INDEX 01 68:57:36

Отчет auCDtect Task manager:

?-----------------------
DON'T MODIFY THIS FILE
-----------------------
PERFORMER: auCDtect Task Manager, ver. 1.5.1RC6 build 1.5.1.7
Copyright (c) 2008-2010 y-soft. All rights reserved
http://y-soft.org
ANALYZER: auCDtect: CD records authenticity detector, version 0.8.2
Copyright (c) 2004 Oleg Berngardt. All rights reserved.
Copyright (c) 2004 Alexander Djourik. All rights reserved.
FILE: U.D.O. - Holy.flac
  Size: 575239328 Hash: 1E30A5890157E6EEE081B5F14B7C7EAF Accuracy: -m0
  Conclusion: CDDA 100%
  Signature: 0E35C8F236DCF13781E8E3FB465C5C80380D4BEE
-Год: 2002
Аудио-кодек: FLAC
Продолжительность: 01:04:14-01 | Man And Machine | 05:43
02 | Private Eye | 03:59
03 | Animal Instinct | 04:14
04 | The Dawn Of The Gods | 04:55
05 | Dancing With An Angel | 04:14
06 | Silent Cry | 05:24
07 | Network Nightmare | 04:06
08 | Hard To Be Honest | 04:52
09 | Like A Lion | 04:18
10 | Black Heart | 04:34
11 | Unknown Traveller | 06:54
12 | Man And Machine (Live) / Bonus Track | 06:23
13 | Dancing With An Angel (feat. Doro Pesch / Remix) / Bonus Track | 04:31

Отчет EAC:

?Exact Audio Copy V1.0 beta 3 from 29. August 2011
EAC extraction logfile from 10. February 2013, 19:25
U.D.O. / Man And Machine
Used drive  : PLEXTOR BD-R  PX-B950SA   Adapter: 6  ID: 0
Read mode               : Secure
Utilize accurate stream : Yes
Defeat audio cache      : Yes
Make use of C2 pointers : No
Read offset correction                      : 6
Overread into Lead-In and Lead-Out          : No
Fill up missing offset samples with silence : Yes
Delete leading and trailing silent blocks   : No
Null samples used in CRC calculations       : Yes
Used interface                              : Native Win32 interface for Win NT & 2000
Used output format : Internal WAV Routines
Sample format      : 44.100 Hz; 16 Bit; Stereo
TOC of the extracted CD
     Track |   Start  |  Length  | Start sector | End sector
    ---------------------------------------------------------
        1  |  0:00.00 |  5:43.28 |         0    |    25752
        2  |  5:43.28 |  3:59.36 |     25753    |    43713
        3  |  9:42.64 |  4:14.41 |     43714    |    62804
        4  | 13:57.30 |  4:55.64 |     62805    |    84993
        5  | 18:53.19 |  4:14.16 |     84994    |   104059
        6  | 23:07.35 |  5:24.26 |    104060    |   128385
        7  | 28:31.61 |  4:06.46 |    128386    |   146881
        8  | 32:38.32 |  4:52.68 |    146882    |   168849
        9  | 37:31.25 |  4:18.54 |    168850    |   188253
       10  | 41:50.04 |  4:34.46 |    188254    |   208849
       11  | 46:24.50 |  6:54.01 |    208850    |   239900
       12  | 53:18.51 |  6:23.52 |    239901    |   268677
       13  | 59:42.28 |  4:31.56 |    268678    |   289058
Range status and errors
Selected range
     Filename C:\Users\Meijin\Desktop\Lossless Galaxy Rip by ALLexxess\UDO\2002 Man And Machine (AFM Records Anniversary Edition 2013)\U.D.O. - Man And Machine.wav
     Peak level 98.8 %
     Extraction speed 8.0 X
     Range quality 100.0 %
     Test CRC 8590CEBF
     Copy CRC 8590CEBF
     Copy OK
No errors occurred
AccurateRip summary
Track  1  not present in database
Track  2  not present in database
Track  3  not present in database
Track  4  not present in database
Track  5  not present in database
Track  6  not present in database
Track  7  not present in database
Track  8  not present in database
Track  9  not present in database
Track 10  not present in database
Track 11  not present in database
Track 12  not present in database
Track 13  not present in database
None of the tracks are present in the AccurateRip database
End of status report
==== Log checksum 91D4C4215F6C1B5BA6A8FB8C0D7A316920E6A1C64CACEF470B0EC5949C2BFDF9 ====

CUE:

REM GENRE "Heavy Metal"
REM DATE 2002
REM DISCID B40F0E0D
REM COMMENT "ExactAudioCopy v1.0b3"
PERFORMER "U.D.O."
TITLE "Man And Machine"
FILE "U.D.O. - Man And Machine.flac" WAVE
  TRACK 01 AUDIO
    TITLE "Man And Machine"
    PERFORMER "U.D.O."
    INDEX 01 00:00:00
  TRACK 02 AUDIO
    TITLE "Private Eye"
    PERFORMER "U.D.O."
    INDEX 00 05:41:28
    INDEX 01 05:43:28
  TRACK 03 AUDIO
    TITLE " Animal Instinct"
    PERFORMER "U.D.O."
    INDEX 00 09:40:64
    INDEX 01 09:42:64
  TRACK 04 AUDIO
    TITLE "The Dawn Of The Gods"
    PERFORMER "U.D.O."
    INDEX 00 13:55:30
    INDEX 01 13:57:30
  TRACK 05 AUDIO
    TITLE "Dancing With An Angel"
    PERFORMER "U.D.O."
    INDEX 00 18:51:19
    INDEX 01 18:53:19
  TRACK 06 AUDIO
    TITLE "Silent Cry"
    PERFORMER "U.D.O."
    INDEX 00 23:05:35
    INDEX 01 23:07:35
  TRACK 07 AUDIO
    TITLE "Network Nightmare"
    PERFORMER "U.D.O."
    INDEX 00 28:29:61
    INDEX 01 28:31:61
  TRACK 08 AUDIO
    TITLE "Hard To Be Honest"
    PERFORMER "U.D.O."
    INDEX 00 32:36:32
    INDEX 01 32:38:32
  TRACK 09 AUDIO
    TITLE "Like A Lion"
    PERFORMER "U.D.O."
    INDEX 00 37:29:25
    INDEX 01 37:31:25
  TRACK 10 AUDIO
    TITLE "Black Heart"
    PERFORMER "U.D.O."
    INDEX 00 41:48:04
    INDEX 01 41:50:04
  TRACK 11 AUDIO
    TITLE "Unknown Traveller"
    PERFORMER "U.D.O."
    INDEX 00 46:22:50
    INDEX 01 46:24:50
  TRACK 12 AUDIO
    TITLE "Man And Machine (Live) / Bonus Track"
    PERFORMER "U.D.O."
    INDEX 00 53:16:51
    INDEX 01 53:18:51
  TRACK 13 AUDIO
    TITLE "Dancing With An Angel (feat. Doro Pesch / Remix) / Bonus Track"
    PERFORMER "U.D.O."
    INDEX 00 59:40:29
    INDEX 01 59:42:28

Отчет auCDtect Task manager:

?-----------------------
DON'T MODIFY THIS FILE
-----------------------
PERFORMER: auCDtect Task Manager, ver. 1.5.1RC6 build 1.5.1.7
Copyright (c) 2008-2010 y-soft. All rights reserved
http://y-soft.org
ANALYZER: auCDtect: CD records authenticity detector, version 0.8.2
Copyright (c) 2004 Oleg Berngardt. All rights reserved.
Copyright (c) 2004 Alexander Djourik. All rights reserved.
FILE: U.D.O. - Man And Machine.flac
  Size: 491778460 Hash: 2E927EF3E6751261658C765F6E6E4604 Accuracy: -m0
  Conclusion: CDDA 100%
  Signature: 1BDE21187716A54339F098AD3BD3EFD144803A22
-Время раздачи: С 09:00 до 23:00 (UTC\GMT+2)

[Цитировать]



Показать сообщения:    

Текущее время: 08-Дек 05:12

Часовой пояс: UTC + 3


Вы не можете начинать темы
Вы не можете отвечать на сообщения
Вы не можете редактировать свои сообщения
Вы не можете удалять свои сообщения
Вы не можете голосовать в опросах
Вы не можете прикреплять файлы к сообщениям
Вы не можете скачивать файлы

!ВНИМАНИЕ!
Сайт не предоставляет электронные версии произведений, а занимается лишь коллекционированием и каталогизацией ссылок, присылаемых и публикуемых на форуме нашими читателями. Если вы являетесь правообладателем какого-либо представленного материала и не желаете, чтобы ссылка на него находилась в нашем каталоге, свяжитесь с нами, и мы незамедлительно удалим ее. Файлы для обмена на трекере предоставлены пользователями сайта, и администрация не несет ответственности за их содержание. Просьба не заливать файлы, защищенные авторскими правами, а также файлы нелегального содержания!