[ Сегодня идет свободное скачивание без начисления Download ]


Статистика раздачи
Нет
 
   
 
Top  
 
 
-Пакт / The Pact (2012) BDRip- Русское название: Пакт
Оригинальное название: The Pact
Год выпуска: 2012
Страна: США
Слоган: «Some doors should never be opened.»
Жанр: Ужасы, триллер, детектив--Режиссер: Николас МакКарти
Актеры: Кейти Лотц (Annie), Кэтлин Роуз Перкинс (Liz), Хейли Хадсон (Stevie), Сэмюэл Болл (Giles), Марк Стегер (Charles), Агнес Бракнер (Nicole), Каспер Ван Дин (Creek), Анджини Танеджа Азар (Hindi Kid), Бо Баррет (Jesse), Дакота Брайт (Eva), Джеффри Ти Фергюсон (Officer Benson), Рэйчел Кан (Waitress)-Описание фильма: После смерти матери сестры Николь и Энни неохотно возвращаются в дом своего детства. Во время пребывания там, ночью, сестры чувствуют таинственное присутствие чего-то или кого-то: пугающий шум, движение объектов. Девушкам предстоит пережить несколько часов кошмара, чтобы узнать об ужасном прошлом их матери…- -Продолжительность: 01:29:03
Перевод: Многоголосый закадровый (лицензия)
Язык субтитров: Русский, Английский
Вид субтитров: Вшитые отключаемые--Качество видео: BDRip
Видеокодек: MPEG-4 AVC/H.264
Битрейт видео: ~14.5 Мбит/с
Размер кадра: 1920x1032
Аудио 1: Русский: AC3, 6 ch, 448 Кбит/с
Аудио 2: Англ-ий: DTS, 6 ch, 1510 Кбит/с
Сохранены оригинальные чаптеры как на Blu-ray-

MediaInfo:

General
Unique ID : 204212567356467118623918398237148870761 (0x99A1E8EBE094E5078320C7C8BCB67869)
Complete name : D:\Pact.2012.BDRip.1080p.mkv
Format : Matroska
Format version : Version 2
File size : 10.2 GiB
Duration : 1h 28mn
Overall bit rate : 16.5 Mbps
Encoded date : UTC 2013-03-14 15:27:12
Writing application : mkvmerge v5.2.0 ('I can't explain') built on Dec 18 2011 18:12:03
Writing library : libebml v1.2.3 + libmatroska v1.3.0
Video
ID : 1
Format : AVC
Format/Info : Advanced Video Codec
Format profile : High@L4.1
Format settings, CABAC : Yes
Format settings, ReFrames : 4 frames
Codec ID : V_MPEG4/ISO/AVC
Duration : 1h 28mn
Bit rate : 14.5 Mbps
Width : 1 920 pixels
Height : 1 032 pixels
Display aspect ratio : 1.85:1
Frame rate mode : Constant
Frame rate : 23.976 fps
Color space : YUV
Chroma subsampling : 4:2:0
Bit depth : 8 bits
Scan type : Progressive
Bits/(Pixel*Frame) : 0.305
Stream size : 8.79 GiB (86%)
Writing library : x264 core 128 r2216 198a7ea
Encoding settings : cabac=1 / ref=4 / deblock=1:-3:-3 / analyse=0x3:0x113 / me=tesa / subme=11 / psy=1 / psy_rd=0.95:0.00 / mixed_ref=1 / me_range=24 / chroma_me=1 / trellis=2 / 8x8dct=1 / cqm=0 / deadzone=21,11 / fast_pskip=1 / chroma_qp_offset=-2 / threads=12 / lookahead_threads=2 / sliced_threads=0 / nr=0 / decimate=1 / interlaced=0 / bluray_compat=0 / constrained_intra=0 / bframes=8 / b_pyramid=2 / b_adapt=2 / b_bias=0 / direct=3 / weightb=1 / open_gop=0 / weightp=2 / keyint=240 / keyint_min=23 / scenecut=40 / intra_refresh=0 / rc=2pass / mbtree=0 / bitrate=14500 / ratetol=1.0 / qcomp=0.55 / qpmin=10 / qpmax=69 / qpstep=4 / cplxblur=20.0 / qblur=0.5 / ip_ratio=1.40 / pb_ratio=1.30 / aq=2:0.75
Language : English
Default : Yes
Forced : Yes
Audio #1
ID : 2
Format : AC-3
Format/Info : Audio Coding 3
Mode extension : CM (complete main)
Format settings, Endianness : Big
Codec ID : A_AC3
Duration : 1h 28mn
Bit rate mode : Constant
Bit rate : 448 Kbps
Channel(s) : 6 channels
Channel positions : Front: L C R, Side: L R, LFE
Sampling rate : 48.0 KHz
Bit depth : 16 bits
Compression mode : Lossy
Stream size : 285 MiB (3%)
Title : DD 5.1 @ 448 kbps - MVO, R5
Language : Russian
Default : Yes
Forced : Yes
Audio #2
ID : 3
Format : DTS
Format/Info : Digital Theater Systems
Mode : 16
Format settings, Endianness : Big
Codec ID : A_DTS
Duration : 1h 28mn
Bit rate mode : Constant
Bit rate : 1 509 Kbps
Channel(s) : 6 channels
Channel positions : Front: L C R, Side: L R, LFE
Sampling rate : 48.0 KHz
Bit depth : 24 bits
Compression mode : Lossy
Stream size : 959 MiB (9%)
Title : DTS 5.1 @ 1536 kbps
Language : English
Default : No
Forced : No
Text #1
ID : 4
Format : UTF-8
Codec ID : S_TEXT/UTF8
Codec ID/Info : UTF-8 Plain Text
Title : Dr.pro
Language : Russian
Default : No
Forced : No
Text #2
ID : 5
Format : UTF-8
Codec ID : S_TEXT/UTF8
Codec ID/Info : UTF-8 Plain Text
Language : English
Default : No
Forced : No
Menu
00:00:00.000 : en:Chapter 00
00:09:43.583 : en:Chapter 01
00:14:56.228 : en:Chapter 02
00:25:09.424 : en:Chapter 03
00:32:13.264 : en:Chapter 04
00:39:17.438 : en:Chapter 05
00:47:19.837 : en:Chapter 06
00:54:20.173 : en:Chapter 07
01:01:38.778 : en:Chapter 08
01:10:35.231 : en:Chapter 09
01:14:57.618 : en:Chapter 10
01:25:17.028 : en:Chapter 11
-Скриншоты:
-Время раздачи: С 09:00 до 24:00

[Цитировать]



Показать сообщения:    

Текущее время: 08-Дек 09:06

Часовой пояс: UTC + 3


Вы не можете начинать темы
Вы не можете отвечать на сообщения
Вы не можете редактировать свои сообщения
Вы не можете удалять свои сообщения
Вы не можете голосовать в опросах
Вы не можете прикреплять файлы к сообщениям
Вы не можете скачивать файлы

!ВНИМАНИЕ!
Сайт не предоставляет электронные версии произведений, а занимается лишь коллекционированием и каталогизацией ссылок, присылаемых и публикуемых на форуме нашими читателями. Если вы являетесь правообладателем какого-либо представленного материала и не желаете, чтобы ссылка на него находилась в нашем каталоге, свяжитесь с нами, и мы незамедлительно удалим ее. Файлы для обмена на трекере предоставлены пользователями сайта, и администрация не несет ответственности за их содержание. Просьба не заливать файлы, защищенные авторскими правами, а также файлы нелегального содержания!