[ Сегодня идет свободное скачивание без начисления Download ]


Статистика раздачи
Нет
 
   
 
Top  
 
 
-Риддл / Riddle (2013) WEB-DLRip- Русское название: Риддл
Оригинальное название: Riddle
Год выпуска: 2013
Производство: США
Жанр: Триллер
Перевод: Любительский двухголосый, закадровый
Озвучка / Автор перевода: перевод (Janetta), работа со звуком (Bane)
Субтитры: Отсутствуют
Дата мировой премьеры: 10 января 2013
Режиссер: Джон О. Хартман, Николас Мросс
Продюсер: Брайан Хартман, Филлип Глассер, Энни Лоффлер
Актеры: Элизабет Арнуа, Вэл Килмер, Диора Бэрд, Уильям Сэдлер, Райан Малгарини, Брайан Лиллис, Бен Бледсо, Джэк Эрди, Рик Эпплгейт, Тимоти Бреслин
Описание фильма:
Молодая девушка Холли Теллер попадает в город Риддл, пытаясь найти своего пропавшего брата. Когда шериф города отказывается продолжать поиски мальчика, Холли пытается самостоятельно разгадать тайну его исчезновения и понять, что связывает его с заброшенной психиатрической лечебницей. То, что предстоит узнать Холли, навсегда изменит ее жизнь…

Продолжительность: 01:39:40
Качество видео: WEB-DLRip
Видеокодек: Xvid
Битрейт видео: ~1706 kb/s
Размер кадра: 720x400
Аудиокодек: AC3, (6 ch)
Битрейт аудио: 384 kb/s

MediaInfo

Общее
Полное имя : I:\Kino\Риддл\Riddle.2013.nnm.WEB-DLRip.avi
Формат : AVI
Формат/Информация : Audio Video Interleave
Размер файла : 1,46 Гбайт
Продолжительность : 1 ч. 39 м.
Общий поток : 2100 Кбит/сек
Программа кодирования : VirtualDubMod 1.5.10.3 | www.virtualdub-fr.org || (build 2550/release)
Библиотека кодирования : VirtualDubMod build 2550/release
Видео
Идентификатор : 0
Формат : MPEG-4 Visual
Профиль формата : Advanced [email protected]
Параметр BVOP формата : 2
Параметр QPel формата : Нет
Параметр GMC формата : Без точки перехода
Параметр матрицы формата : Default (H.263)
Идентификатор кодека : XVID
Идентификатор кодека/Подсказка : XviD
Продолжительность : 1 ч. 39 м.
Битрейт : 1706 Кбит/сек
Ширина : 720 пикселей
Высота : 400 пикселей
Соотношение сторон : 16:9
Частота кадров : 23,976 кадра/сек
Цветовое пространство : YUV
Субдискретизация насыщенности : 4:2:0
Битовая глубина : 8 бит
Тип развёртки : Прогрессивная
Метод сжатия : С потерями
Бит/(Пиксели*Кадры) : 0.247
Размер потока : 1,19 Гбайт (81%)
Библиотека кодирования : XviD 1.2.1 (UTC 2008-12-04)
Аудио
Идентификатор : 1
Формат : AC-3
Формат/Информация : Audio Coding 3
Расширение режима : CM (complete main)
Идентификатор кодека : 2000
Продолжительность : 1 ч. 39 м.
Вид битрейта : Постоянный
Битрейт : 384 Кбит/сек
Каналы : 6 каналов
Расположение каналов : Front: L C R, Side: L R, LFE
Частота : 48,0 КГц
Битовая глубина : 16 бит
Метод сжатия : С потерями
Размер потока : 274 Мбайт (18%)
Выравнивание : Разделение по промежуткам
Продолжительность промежутка : 42 мс. (1,00 видеокадр)
Время предзагрузки промежутка : 500 мс.
Скриншоты:

Время раздачи: С 09:00 до 24:00 мск

[Цитировать]

Топик был перенесен из форума Новинки кинопроката в форум Триллер
Henkok



Показать сообщения:    

Текущее время: 04-Дек 06:59

Часовой пояс: UTC + 3


Вы не можете начинать темы
Вы не можете отвечать на сообщения
Вы не можете редактировать свои сообщения
Вы не можете удалять свои сообщения
Вы не можете голосовать в опросах
Вы не можете прикреплять файлы к сообщениям
Вы не можете скачивать файлы

!ВНИМАНИЕ!
Сайт не предоставляет электронные версии произведений, а занимается лишь коллекционированием и каталогизацией ссылок, присылаемых и публикуемых на форуме нашими читателями. Если вы являетесь правообладателем какого-либо представленного материала и не желаете, чтобы ссылка на него находилась в нашем каталоге, свяжитесь с нами, и мы незамедлительно удалим ее. Файлы для обмена на трекере предоставлены пользователями сайта, и администрация не несет ответственности за их содержание. Просьба не заливать файлы, защищенные авторскими правами, а также файлы нелегального содержания!