[ Сегодня идет свободное скачивание без начисления Download ]


Статистика раздачи
Нет
 
   
 
Top  
 
 
-Мужчина нарасхват / Playing for Keeps (2012) BDRip- Русское название: Мужчина нарасхват
Оригинальное название: Playing for Keeps
Год выпуска: 2012
Производство: США - Eclectic Pictures, Evil Twins (I), Millennium Film
Жанр: мелодрама, комедия, драма
Перевод: Дублированный
Субтитры: Вшитые отключаемые
Язык субтитров: Английский
Режиссер: Габриэле Муччино / Gabriele Muccino
Продюсер: Джерард Батлер, Хайди Джо Маркел, Кевин Мишер
Актеры: Джерард Батлер, Джессика Бил, Ума Турман, Кэтрин Зета-Джонс, Деннис Куэйд, Ной Ломакс, Джеймс Таппер, Джуди Грир, Абелла Уайсс, Грант Гудман
Описание фильма:
Звезда футбола и просто шикарный мужчина по воле случая становится тренером детской футбольной команды. С этого момента для своих подопечных и их обольстительных мамочек он — «Мужчина нарасхват»…-
Дата мировой премьеры: 5 декабря 2012
Дата российской премьеры: 6 декабря 2012, «UPI»
Дата выхода DVD релиза: 28 февраля 2013, «Флагман-Трейд»-Продолжительность: 01:45:37
Качество видео: BDRip 1080p
Видеокодек: MPEG-4 AVC/H.264
Видео: H.264, 13.1 мбит/с, 1920 x 800 (2.400) at 23.976 fps
Аудио #1: Русский: DTS, 1536 кбит/сек, 5.1, 48,0 КГц, 16 бит - дублированный
Аудио #2: Английский: DTS, 1536 кбит/сек, 5.1, 48,0 КГц, 24 бит

Сохранены оригинальные чаптеры как на Blu-Ray

Рецензия, отзыв о фильме:

Простая история одного мужчины
Честно говоря, мне не понятно то, почему у картины такой низкий рейтинг. Фильм подвергся сильной критике со стороны зрителя. Лично мне он очень понравился.
Это простая, жизненная, добрая история, которая заслуживает внимания. На мой взгляд, именно простота и ясность сюжета делают это кино очень хорошим. Конечно, нельзя обойти стороной актёрский состав.
Джерард Батлер ещё раз доказал, что он талантливый и харизматичный актёр. Его герой не лишён внимания прекрасной половины пола, но при этом одинок и ему не хватает семейной теплоты. Он сильно любит сына и хочет вернуть свою жену. Для настоящего счастья ему нужна его семья рядом. Джерард, как всегда, на высоте. Густая шевелюра и небритость придают ему брутальности и шарма.
Очень хорошо вписалась в картину Джессика Бил. Актриса сыграла на должном уровне. В их чувства с героем Батлера я поверил полностью. Иногда, даже, была заметна нехватка грима. От этого, героиня Джессики смотрелась живой и настоящей.
Эффектно смотрелась в фильме Кэтрин Зета-Джонс. Пусть, на её лице были видны лёгкие морщинки, но обаяния она не потеряла. Героиня Кэтрин выглядела довольно колоритно на общем фоне.
Не лишним в фильме оказался и Деннис Куэйд. Правда, экранного времени у него здесь немного, но своим участием он фильм отлично дополнил.
Пожалуй, отмечу ещё Уму Турман. Как актриса и женщина, она мне не очень нравится, но играет убедительно. В любом случае, в актёрский состав она вписалась отлично.
Я порекомендую эту картину к просмотру людям, которым нравятся жизненные истории с драматической составляющей и хорошей игрой актёров. Здесь нет лишнего пафоса, пошлого юмора и скучных диалогов. Я полностью остался доволен просмотром. Спасибо за внимание.
10 из 10

MediaInfo:

Общее
Уникальный идентификатор : 248968238153728055231706101287742305872 (0xBB4D89DB8A28D94282B0B2402EEF7650)
Полное имя : D:\Video\Playing.for.Keeps.2012.BluRay.1080p.dts.Rus.Eng.mkv
Формат : Matroska
Версия формата : Version 2
Размер файла : 12,1 Гбайт
Продолжительность : 1 ч. 45 м.
Общий поток : 16,4 Мбит/сек
Дата кодирования : UTC 2013-02-26 23:53:28
Программа кодирования : mkvmerge v5.8.0 ('No Sleep / Pillow') built on Sep 2 2012 15:37:04
Библиотека кодирования : libebml v1.2.3 + libmatroska v1.3.0
Видео
Идентификатор : 1
Формат : AVC
Формат/Информация : Advanced Video Codec
Профиль формата : [email protected]
Параметр CABAC формата : Да
Параметр ReFrames формата : 5 кадров
Идентификатор кодека : V_MPEG4/ISO/AVC
Продолжительность : 1 ч. 45 м.
Битрейт : 13,1 Мбит/сек
Ширина : 1920 пикселей
Высота : 800 пикселей
Соотношение сторон : 2,40:1
Частота кадров : 23,976 кадра/сек
Цветовое пространство : YUV
Субдискретизация насыщенности : 4:2:0
Битовая глубина : 8 бит
Тип развёртки : Прогрессивная
Бит/(Пиксели*Кадры) : 0.355
Размер потока : 9,64 Гбайт (80%)
Библиотека кодирования : x264 core 129 r2245 bc13772
Настройки программы : cabac=1 / ref=5 / deblock=1:-3:-3 / analyse=0x3:0x113 / me=tesa / subme=10 / psy=1 / psy_rd=1.10:0.05 / mixed_ref=1 / me_range=24 / chroma_me=1 / trellis=2 / 8x8dct=1 / cqm=0 / deadzone=21,11 / fast_pskip=0 / chroma_qp_offset=-3 / threads=12 / lookahead_threads=2 / sliced_threads=0 / nr=0 / decimate=1 / interlaced=0 / bluray_compat=0 / constrained_intra=0 / bframes=7 / b_pyramid=2 / b_adapt=2 / b_bias=0 / direct=3 / weightb=1 / open_gop=0 / weightp=2 / keyint=250 / keyint_min=23 / scenecut=40 / intra_refresh=0 / rc_lookahead=60 / rc=crf / mbtree=0 / crf=17.0 / qcomp=0.60 / qpmin=0 / qpmax=69 / qpstep=4 / vbv_maxrate=50000 / vbv_bufsize=62500 / crf_max=0.0 / nal_hrd=none / ip_ratio=1.40 / pb_ratio=1.30 / aq=2:0.90
Язык : English
Default : Да
Forced : Да
Основные цвета : BT.709-5, BT.1361, IEC 61966-2-4, SMPTE RP177
Характеристики трансфера : BT.709-5, BT.1361
Коэффициенты матрицы : BT.709-5, BT.1361, IEC 61966-2-4 709, SMPTE RP177
Аудио #1
Идентификатор : 2
Формат : DTS
Формат/Информация : Digital Theater Systems
Идентификатор кодека : A_DTS
Продолжительность : 1 ч. 45 м.
Вид битрейта : Постоянный
Битрейт : 1510 Кбит/сек
Каналы : 6 каналов
Расположение каналов : Front: L C R, Side: L R, LFE
Частота : 48,0 КГц
Битовая глубина : 16 бит
Метод сжатия : С потерями
Размер потока : 1,11 Гбайт (9%)
Язык : Russian
Default : Да
Forced : Да
Аудио #2
Идентификатор : 3
Формат : DTS
Формат/Информация : Digital Theater Systems
Идентификатор кодека : A_DTS
Продолжительность : 1 ч. 45 м.
Вид битрейта : Постоянный
Битрейт : 1510 Кбит/сек
Каналы : 6 каналов
Расположение каналов : Front: L C R, Side: L R, LFE
Частота : 48,0 КГц
Битовая глубина : 24 бит
Метод сжатия : С потерями
Размер потока : 1,11 Гбайт (9%)
Язык : English
Default : Нет
Forced : Нет
Текст
Идентификатор : 4
Формат : UTF-8
Идентификатор кодека : S_TEXT/UTF8
Идентификатор кодека/Информация : UTF-8 Plain Text
Язык : English
Default : Нет
Forced : Нет
Меню
00:00:00.000 : en:
00:05:20.570 : en:
00:12:47.224 : en:
00:17:47.941 : en:
00:26:00.767 : en:
00:29:59.464 : en:
00:37:14.815 : en:
00:41:30.863 : en:
00:49:01.813 : en:
00:57:41.040 : en:
01:01:35.692 : en:
01:07:56.280 : en:
01:13:48.465 : en:
01:19:21.214 : en:
01:24:21.848 : en:
01:30:05.316 : en:
Скриншоты:


Время раздачи: с 10:00 до 20:00 (GMT+2) - до 15 скачавшихНе забываем говорить

[Цитировать]

Топик был перенесен из форума Новинки кинопроката (HD Video) в форум Зарубежное кино (HD Video)
Bootch



Показать сообщения:    

Текущее время: 04-Дек 21:27

Часовой пояс: UTC + 3


Вы не можете начинать темы
Вы не можете отвечать на сообщения
Вы не можете редактировать свои сообщения
Вы не можете удалять свои сообщения
Вы не можете голосовать в опросах
Вы не можете прикреплять файлы к сообщениям
Вы не можете скачивать файлы

!ВНИМАНИЕ!
Сайт не предоставляет электронные версии произведений, а занимается лишь коллекционированием и каталогизацией ссылок, присылаемых и публикуемых на форуме нашими читателями. Если вы являетесь правообладателем какого-либо представленного материала и не желаете, чтобы ссылка на него находилась в нашем каталоге, свяжитесь с нами, и мы незамедлительно удалим ее. Файлы для обмена на трекере предоставлены пользователями сайта, и администрация не несет ответственности за их содержание. Просьба не заливать файлы, защищенные авторскими правами, а также файлы нелегального содержания!