[ Сегодня идет свободное скачивание без начисления Download ]


Статистика раздачи
Нет
 
   
 
Top  
 
 
-VA - 200 знаменитых рок хитов СССР (1979-1991)- Год: 1979-1991
Жанр: Rock
Продолжительность: 14:01:33
Страна: CCCP
Кодек: FLAC
Битрейт: Lossless
Тип рипа: image+*.cue
Описание: Данная раздача является как бы звуковой иллюстрацией к книге "100 МАГНИТОАЛЬБОМОВ СОВЕТСКОГО РОКА" Александра Кушнира. Подпольные концерты, Самиздатовские книги, нелегальные магнитоальбомы - обо всем этом вспоминаешь, слушая эту музыку.
Да, можно спорить о том, что кто-то из грандов не попал в этот сборник, кого-то (видимо по отдельной любви авторов) представили чересчур подробно, но одного не отнимешь - эпоха чувствуется в каждом треке. Слушайте с удовольствием!Трек лист:

CD 01:

(17 / 01:15:30)
001. Машина времени - Ты или я (1979) (04:49)
002. Воскресение - Кто виноват (1979) (03:40)
003. Машина времени - Барьер (1979) (05:25)
004. Воскресение - Ночная птица (1979) (04:12)
005. Машина времени - Кого ты хотел удивить (1980) (04:57)
006. Аракс - Все как прежде (1980) (05:45)
007. Машина времени - Синяя птица (1980) (02:16)
008. Аракс - Завтра (1980) (03:41)
009. Машина времени - Поворот (1980) (03:51)
010. Воскресение - Музыкант (1981) (05:40) 011. Карнавал - Внезапный тупик (1981) (04:57)
012. Машина времени - Скачки (1981) (02:59)
013. Круиз - Крутится волчок (1981) (03:31)
014. Воскресение - В моей душе осадок зла (1981) (04:35)
015. Круиз - Стремления (1981) (05:15)
016. Пикник - Вечер (1982) (05:05)
017. Динамик - По-прежнему вдвоем (Капюшон) (1982) (04:11)

Отчёт ЕАС:

Exact Audio Copy V0.99 prebeta 5 from 4. May 2009
Отчёт EAC об извлечении, выполненном 14. марта 2013, 15:53
Various / 200 знаменитых рок хитов СССР (1979-1991) CD1
Дисковод: PIONER  BDR206   Adapter: 2  ID: 0
Режим чтения                 : Достоверность
Использование точного потока : Да
Отключение кэша аудио        : Да
Использование указателей C2  : Нет
Коррекция смещения при чтении                     : 0
Способность читать области Lead-in и Lead-out     : Нет
Заполнение пропущенных сэмплов тишиной            : Да
Удаление блоков с тишиной в начале и конце        : Нет
При вычислениях CRC использовались нулевые сэмплы : Нет
Интерфейс                                         : Встроенный Win32-интерфейс для Win NT/2000
Выходной формат          : Пользовательский кодировщик
Выбранный битрейт        : 768 kBit/s
Качество                 : Высокий
Добавление ID3-тэга      : Да
Утилита сжатия           : C:\Program Files\Exact Audio Copy\FLAC\FLAC.EXE
Дополнительные параметры : -8 -V -T "ARTIST=%a" -T "TITLE=%t" -T "ALBUM=%g" -T "DATE=%y" -T "TRACKNUMBER=%n" -T "GENRE=%m" -T "COMMENT=%e" %s -o %d
TOC извлечённого CD
     Трек |   Старт  | Длительность | Начальный сектор | Конечный сектор
    ---------------------------------------------------------------------
       1  |  0:00.00 |    4:51.26   |           0      |      21850
       2  |  4:51.26 |    3:42.05   |       21851      |      38505
       3  |  8:33.31 |    5:27.29   |       38506      |      63059
       4  | 14:00.60 |    4:14.56   |       63060      |      82165
       5  | 18:15.41 |    4:59.73   |       82166      |     104663
       6  | 23:15.39 |    5:47.09   |      104664      |     130697
       7  | 29:02.48 |    2:18.03   |      130698      |     141050
       8  | 31:20.51 |    3:43.60   |      141051      |     157835
       9  | 35:04.36 |    3:53.05   |      157836      |     175315
      10  | 38:57.41 |    5:42.32   |      175316      |     200997
      11  | 44:39.73 |    4:59.72   |      200998      |     223494
      12  | 49:39.70 |    3:01.74   |      223495      |     237143
      13  | 52:41.69 |    3:33.21   |      237144      |     253139
      14  | 56:15.15 |    4:37.73   |      253140      |     273987
      15  | 60:53.13 |    5:17.60   |      273988      |     297822
      16  | 66:10.73 |    5:07.64   |      297823      |     320911
      17  | 71:18.62 |    4:11.45   |      320912      |     339781
Характеристики диапазона извлечения и сообщения об ошибках
Выбранный диапазон
     Имя файла E:\Downloads\200 знаменитых рок хитов СССР (1979-1991)(Flac+cue)\CD 01\Various - 200 знаменитых рок хитов СССР (1979-1991) CD1.wav
     Пиковый уровень 98.4 %
     Качество диапазона 97.0 %
     CRC теста BBCC37FC
     CRC копии BBCC37FC
     Копирование... OK
Ошибок не произошло
Конец отчёта

Отчёт auCDtect Task manager:

-----------------------
DON'T MODIFY THIS FILE
-----------------------
PERFORMER: auCDtect Task Manager, ver. 1.5.1RC6 build 1.5.1.7
Copyright (c) 2008-2010 y-soft. All rights reserved
http://y-soft.org
ANALYZER: auCDtect: CD records authenticity detector, version 0.8.2
Copyright (c) 2004 Oleg Berngardt. All rights reserved.
Copyright (c) 2004 Alexander Djourik. All rights reserved.
FILE: Various - 200 знаменитых рок хитов СССР (1979-1991) CD1.flac
  Size: 505353952 Hash: 082B0CF1CB9764CE8D08DF47AFFBB349 Accuracy: -m0
  Conclusion: CDDA 100%
  Signature: B059F7D26265E8648506A688202F5FF26204C5DC

Спектограмма:

(17 / 01:16:48)

CD02

018. Круиз - Не позволяй душе лениться (1982) (05:14)
019. Карнавал - Ожидая тебя (1982) (03:49)
020. Москва - Дождь (1982) (05:24)
021. Динамик - Берега (1982) (04:03)
022. Пикник - Ночь (1982) (06:54)
023. Круиз - Как скучно жить без светлой сказки (1982) (02:30)
024. Юрий Антонов - Жизнь (1983) (04:53)
025. Карнавал - Актёр (1983) (03:20)
026. Альфа - Гуляка (1983) (03:17)
027. Мануфактура - Чёрно-белый мир (1983) (03:17)
028. Юрий Антонов - Не забывай (1983) (03:45)
029. Карнавал - Остров (1983) (04:32)
030. Альфа - Нет звезд на свете... (1983) (07:31)
031. Земляне - Трава у дома (1983) (04:42)
032. Юрий Лоза - Девочка сегодня в баре... (1983) (03:21)
033. Александр Барыкин - Звездный карнавал (1983) (04:26)
034. Юрий Антонов - Я вспоминаю (1983) (05:44)

Отчёт ЕАС:

Exact Audio Copy V0.99 prebeta 5 from 4. May 2009
Отчёт EAC об извлечении, выполненном 14. марта 2013, 16:06
Various / 200 знаменитых рок хитов СССР (1979-1991)CD2
Дисковод: PIONER  BDR206   Adapter: 2  ID: 0
Режим чтения                 : Достоверность
Использование точного потока : Да
Отключение кэша аудио        : Да
Использование указателей C2  : Нет
Коррекция смещения при чтении                     : 0
Способность читать области Lead-in и Lead-out     : Нет
Заполнение пропущенных сэмплов тишиной            : Да
Удаление блоков с тишиной в начале и конце        : Нет
При вычислениях CRC использовались нулевые сэмплы : Нет
Интерфейс                                         : Встроенный Win32-интерфейс для Win NT/2000
Выходной формат          : Пользовательский кодировщик
Выбранный битрейт        : 768 kBit/s
Качество                 : Высокий
Добавление ID3-тэга      : Да
Утилита сжатия           : C:\Program Files\Exact Audio Copy\FLAC\FLAC.EXE
Дополнительные параметры : -8 -V -T "ARTIST=%a" -T "TITLE=%t" -T "ALBUM=%g" -T "DATE=%y" -T "TRACKNUMBER=%n" -T "GENRE=%m" -T "COMMENT=%e" %s -o %d
TOC извлечённого CD
     Трек |   Старт  | Длительность | Начальный сектор | Конечный сектор
    ---------------------------------------------------------------------
       1  |  0:00.00 |    5:14.51   |           0      |      23600
       2  |  5:14.51 |    3:49.33   |       23601      |      40808
       3  |  9:04.09 |    5:24.22   |       40809      |      65130
       4  | 14:28.31 |    4:03.36   |       65131      |      83391
       5  | 18:31.67 |    6:54.22   |       83392      |     114463
       6  | 25:26.14 |    2:30.53   |      114464      |     125766
       7  | 27:56.67 |    4:53.09   |      125767      |     147750
       8  | 32:50.01 |    3:20.12   |      147751      |     162762
       9  | 36:10.13 |    3:17.13   |      162763      |     177550
      10  | 39:27.26 |    3:17.03   |      177551      |     192328
      11  | 42:44.29 |    3:45.52   |      192329      |     209255
      12  | 46:30.06 |    4:32.16   |      209256      |     229671
      13  | 51:02.22 |    7:31.62   |      229672      |     263558
      14  | 58:34.09 |    4:42.13   |      263559      |     284721
      15  | 63:16.22 |    3:21.11   |      284722      |     299807
      16  | 66:37.33 |    4:26.66   |      299808      |     319823
      17  | 71:04.24 |    5:44.01   |      319824      |     345624
Характеристики диапазона извлечения и сообщения об ошибках
Выбранный диапазон
     Имя файла E:\Downloads\200 знаменитых рок хитов СССР (1979-1991)(Flac+cue)\CD 02\Various - 200 знаменитых рок хитов СССР (1979-1991)CD2.wav
     Пиковый уровень 100.0 %
     Качество диапазона 100.0 %
     CRC теста AD0EEE49
     CRC копии AD0EEE49
     Копирование... OK
Ошибок не произошло
Конец отчёта

Отчёт auCDtect Task manager:

-----------------------
DON'T MODIFY THIS FILE
-----------------------
PERFORMER: auCDtect Task Manager, ver. 1.5.1RC6 build 1.5.1.7
Copyright (c) 2008-2010 y-soft. All rights reserved
http://y-soft.org
ANALYZER: auCDtect: CD records authenticity detector, version 0.8.2
Copyright (c) 2004 Oleg Berngardt. All rights reserved.
Copyright (c) 2004 Alexander Djourik. All rights reserved.
FILE: Various - 200 знаменитых рок хитов СССР (1979-1991)CD2.flac
  Size: 535500008 Hash: 553B87F6745B2F78EDF3A1B916A7F3C2 Accuracy: -m0
  Conclusion: CDDA 100%
  Signature: B71B3DC37D172C7FAEF72C08082B0E969B7877BE

Спектограмма:

(19 / 01:13:05)

CD03

035. Автограф - Монолог (1984) (04:34)
036. Альфа - Я стал таким невзрачным (1984) (03:50)
037. Владимир Кузьмин - Простой сюжет (1984) (03:26)
038. Машина времени - Вагонные споры (1984) (02:24)
039. Круиз - Вершина (1984) (04:20)
040. Юрий Лоза - Исполнительный лист (1984) (03:35)
041. Пикник - А учили меня летать (1984) (04:22)
042. Владимир Кузьмин - Я не звоню (1984) (03:54)
043. Круиз - P.S. Продолжение следует (1984) (04:21)
044. Автограф - Пристегните ремни безопасности (1984) (03:14)
045. Зоопарк - Когда я знал тебя совсем другой (1984) (02:30)
046. Юрий Лоза - Над деревней Клюевкой... (1984) (03:18)
047. Альфа - Что такое один (1984) (04:18)
048. Земляне - Маленький кораблик (1984) (04:40)
049. Пикник - Я иду по дну (1984) (04:06)
050. Юрий Лоза - Гараж (Жигули) (1984) (04:02)
051. Арсенал - Ностальгия (1985) (04:41)
052. Машина времени - Первый шаг (1985) (03:48)
053. Владимир Кузьмин - Ещё вчера (1985) (03:33)

Отчёт ЕАС:

Exact Audio Copy V0.99 prebeta 5 from 4. May 2009
Отчёт EAC об извлечении, выполненном 14. марта 2013, 16:12
Various / 200 знаменитых рок хитов СССР (1979-1991)CD3
Дисковод: PIONER  BDR206   Adapter: 2  ID: 0
Режим чтения                 : Достоверность
Использование точного потока : Да
Отключение кэша аудио        : Да
Использование указателей C2  : Нет
Коррекция смещения при чтении                     : 0
Способность читать области Lead-in и Lead-out     : Нет
Заполнение пропущенных сэмплов тишиной            : Да
Удаление блоков с тишиной в начале и конце        : Нет
При вычислениях CRC использовались нулевые сэмплы : Нет
Интерфейс                                         : Встроенный Win32-интерфейс для Win NT/2000
Выходной формат          : Пользовательский кодировщик
Выбранный битрейт        : 768 kBit/s
Качество                 : Высокий
Добавление ID3-тэга      : Да
Утилита сжатия           : C:\Program Files\Exact Audio Copy\FLAC\FLAC.EXE
Дополнительные параметры : -8 -V -T "ARTIST=%a" -T "TITLE=%t" -T "ALBUM=%g" -T "DATE=%y" -T "TRACKNUMBER=%n" -T "GENRE=%m" -T "COMMENT=%e" %s -o %d
TOC извлечённого CD
     Трек |   Старт  | Длительность | Начальный сектор | Конечный сектор
    ---------------------------------------------------------------------
       1  |  0:00.00 |    4:34.71   |           0      |      20620
       2  |  4:34.71 |    3:50.66   |       20621      |      37936
       3  |  8:25.62 |    3:26.69   |       37937      |      53455
       4  | 11:52.56 |    2:24.24   |       53456      |      64279
       5  | 14:17.05 |    4:20.21   |       64280      |      83800
       6  | 18:37.26 |    3:35.15   |       83801      |      99940
       7  | 22:12.41 |    4:22.41   |       99941      |     119631
       8  | 26:35.07 |    3:54.38   |      119632      |     137219
       9  | 30:29.45 |    4:21.38   |      137220      |     156832
      10  | 34:51.08 |    3:14.15   |      156833      |     171397
      11  | 38:05.23 |    2:30.45   |      171398      |     182692
      12  | 40:35.68 |    3:18.05   |      182693      |     197547
      13  | 43:53.73 |    4:18.03   |      197548      |     216900
      14  | 48:12.01 |    4:40.35   |      216901      |     237935
      15  | 52:52.36 |    4:06.44   |      237936      |     256429
      16  | 56:59.05 |    4:02.50   |      256430      |     274629
      17  | 61:01.55 |    4:41.15   |      274630      |     295719
      18  | 65:42.70 |    3:48.68   |      295720      |     312887
      19  | 69:31.63 |    3:33.10   |      312888      |     328872
Характеристики диапазона извлечения и сообщения об ошибках
Выбранный диапазон
     Имя файла E:\Downloads\200 знаменитых рок хитов СССР (1979-1991)(Flac+cue)\CD 03\Various - 200 знаменитых рок хитов СССР (1979-1991)CD3.wav
     Пиковый уровень 96.5 %
     Качество диапазона 99.5 %
     CRC теста 46B7D630
     CRC копии 46B7D630
     Копирование... OK
Ошибок не произошло
Конец отчёта

Отчёт auCDtect Task manager:

-----------------------
DON'T MODIFY THIS FILE
-----------------------
PERFORMER: auCDtect Task Manager, ver. 1.5.1RC6 build 1.5.1.7
Copyright (c) 2008-2010 y-soft. All rights reserved
http://y-soft.org
ANALYZER: auCDtect: CD records authenticity detector, version 0.8.2
Copyright (c) 2004 Oleg Berngardt. All rights reserved.
Copyright (c) 2004 Alexander Djourik. All rights reserved.
FILE: Various - 200 знаменитых рок хитов СССР (1979-1991)CD3.flac
  Size: 499292860 Hash: 3C53538105B26E5BC30B9DCDB609EE34 Accuracy: -m0
  Conclusion: CDDA 100%
  Signature: 097605022294C5DD8243F6C52B00353F81A738EE

Спектограмма:

(18 / 01:13:57)

CD04

054. Юрий Антонов - Поверь в мечту (1985) (04:24)
055. Юрий Лоза - Я умею мечтать (1985) (03:50)
056. АлисА - Мое поколение (1985) (03:53)
057. Машина времени - Наш остров (1985) (04:41)
058. Александр Барыкин - Летучий голландец (1985) (03:24)
059. Владимир Кузьмин - Я возвращался домой (1985) (04:03)
060. Юрий Лоза - Одиночество (1985) (03:31)
061. Земляне - Путь домой (1985) (03:18)
062. Круг - Позади крутой поворот (1986) (05:41)
063. Машина времени - Пока горит свеча (1986) (04:08)
064. Наутилус Помпилиус - Хлоп-хлоп (1986) (03:59)
065. Пикник - Остров (1986) (04:38)
066. Владимир Кузьмин - Мячик (1986) (03:42)
067. Юрий Лоза - Опять (1986) (05:04)
068. Круг - Ты сказала "Поверь" (1986) (05:19)
069. Машина времени - За тех, кто в море (1986) (03:42)
070. Кино – Видели ночь (1986) (03:05)
071. Юрий Антонов - О тебе и обо мне (1986) (03:27)

Отчёт ЕАС:

Exact Audio Copy V0.99 prebeta 5 from 4. May 2009
Отчёт EAC об извлечении, выполненном 14. марта 2013, 16:21
Various / 200 знаменитых рок хитов СССР (1979-1991)CD4
Дисковод: PIONER  BDR206   Adapter: 2  ID: 0
Режим чтения                 : Достоверность
Использование точного потока : Да
Отключение кэша аудио        : Да
Использование указателей C2  : Нет
Коррекция смещения при чтении                     : 0
Способность читать области Lead-in и Lead-out     : Нет
Заполнение пропущенных сэмплов тишиной            : Да
Удаление блоков с тишиной в начале и конце        : Нет
При вычислениях CRC использовались нулевые сэмплы : Нет
Интерфейс                                         : Встроенный Win32-интерфейс для Win NT/2000
Выходной формат          : Пользовательский кодировщик
Выбранный битрейт        : 768 kBit/s
Качество                 : Высокий
Добавление ID3-тэга      : Да
Утилита сжатия           : C:\Program Files\Exact Audio Copy\FLAC\FLAC.EXE
Дополнительные параметры : -8 -V -T "ARTIST=%a" -T "TITLE=%t" -T "ALBUM=%g" -T "DATE=%y" -T "TRACKNUMBER=%n" -T "GENRE=%m" -T "COMMENT=%e" %s -o %d
TOC извлечённого CD
     Трек |   Старт  | Длительность | Начальный сектор | Конечный сектор
    ---------------------------------------------------------------------
       1  |  0:00.00 |    4:24.21   |           0      |      19820
       2  |  4:24.21 |    3:50.57   |       19821      |      37127
       3  |  8:15.03 |    3:53.08   |       37128      |      54610
       4  | 12:08.11 |    4:41.18   |       54611      |      75703
       5  | 16:49.29 |    3:24.61   |       75704      |      91064
       6  | 20:14.15 |    4:03.28   |       91065      |     109317
       7  | 24:17.43 |    3:31.16   |      109318      |     125158
       8  | 27:48.59 |    3:18.41   |      125159      |     140049
       9  | 31:07.25 |    5:41.26   |      140050      |     165650
      10  | 36:48.51 |    4:08.22   |      165651      |     184272
      11  | 40:56.73 |    3:59.67   |      184273      |     202264
      12  | 44:56.65 |    4:38.09   |      202265      |     223123
      13  | 49:34.74 |    3:42.46   |      223124      |     239819
      14  | 53:17.45 |    5:04.63   |      239820      |     262682
      15  | 58:22.33 |    5:19.53   |      262683      |     286660
      16  | 63:42.11 |    3:42.19   |      286661      |     303329
      17  | 67:24.30 |    3:05.73   |      303330      |     317277
      18  | 70:30.28 |    3:27.09   |      317278      |     332811
Характеристики диапазона извлечения и сообщения об ошибках
Выбранный диапазон
     Имя файла E:\Downloads\200 знаменитых рок хитов СССР (1979-1991)(Flac+cue)\CD 04\Various - 200 знаменитых рок хитов СССР (1979-1991)CD4.wav
     Пиковый уровень 97.2 %
     Качество диапазона 98.1 %
     CRC теста 06A8F860
     CRC копии 06A8F860
     Копирование... OK
Ошибок не произошло
Конец отчёта

Отчёт auCDtect Task manager:

-----------------------
DON'T MODIFY THIS FILE
-----------------------
PERFORMER: auCDtect Task Manager, ver. 1.5.1RC6 build 1.5.1.7
Copyright (c) 2008-2010 y-soft. All rights reserved
http://y-soft.org
ANALYZER: auCDtect: CD records authenticity detector, version 0.8.2
Copyright (c) 2004 Oleg Berngardt. All rights reserved.
Copyright (c) 2004 Alexander Djourik. All rights reserved.
FILE: Various - 200 знаменитых рок хитов СССР (1979-1991)CD4.flac
  Size: 516476960 Hash: E0B66EE0F2C8869A53BFC7CA35545FF7 Accuracy: -m0
  Conclusion: CDDA 100%
  Signature: 9067BE7D80E8C78325FED565CAA3ECAC7BA3EBFB

Спектограмма:

(18 / 01:14:39)
072. Ария - Воля и разум (1986) (04:30)
073. Секрет - Именины у Кристины (1986) (02:55)
074. Пикник - Праздник (1986) (04:29)
075. Круг - Кара-кум (1986) (04:58)
076. Ария - Встань, страх преодолей (1986) (04:12)
077. Наутилус Помпилиус - Скованные одной цепью (1986) (03:50)
078. Владимир Кузьмин - Симона (1986) (04:02)
079. Чёрный Кофе - Дьявол во плоти (1986) (02:50)
080. Юрий Лоза - Сто часов (1986) (03:35)
081. Машина времени - Ночь (1986) (04:45)
082. Владимир Кузьмин - Похожа на мечту (1987) (04:42)
083. Александр Барыкин - 20-00 (1987) (03:53)
084. Альянс - Звуки на заре (1986) (05:42)
085. Аквариум - Город (1987) (02:33)
086. Секрет - Алиса (1987) (02:26)
087. Ария - Герой асфальта (1987) (05:10)
088. Александр Барыкин - Натали (1987) (06:33)
089. Чёрный Кофе - Жизни рассвет (1987) (03:27)

Отчёт ЕАС:

Exact Audio Copy V0.99 prebeta 5 from 4. May 2009
Отчёт EAC об извлечении, выполненном 14. марта 2013, 16:28
Various / 200 знаменитых рок хитов СССР (1979-1991)CD5
Дисковод: PIONER  BDR206   Adapter: 2  ID: 0
Режим чтения                 : Достоверность
Использование точного потока : Да
Отключение кэша аудио        : Да
Использование указателей C2  : Нет
Коррекция смещения при чтении                     : 0
Способность читать области Lead-in и Lead-out     : Нет
Заполнение пропущенных сэмплов тишиной            : Да
Удаление блоков с тишиной в начале и конце        : Нет
При вычислениях CRC использовались нулевые сэмплы : Нет
Интерфейс                                         : Встроенный Win32-интерфейс для Win NT/2000
Выходной формат          : Пользовательский кодировщик
Выбранный битрейт        : 768 kBit/s
Качество                 : Высокий
Добавление ID3-тэга      : Да
Утилита сжатия           : C:\Program Files\Exact Audio Copy\FLAC\FLAC.EXE
Дополнительные параметры : -8 -V -T "ARTIST=%a" -T "TITLE=%t" -T "ALBUM=%g" -T "DATE=%y" -T "TRACKNUMBER=%n" -T "GENRE=%m" -T "COMMENT=%e" %s -o %d
TOC извлечённого CD
     Трек |   Старт  | Длительность | Начальный сектор | Конечный сектор
    ---------------------------------------------------------------------
       1  |  0:00.00 |    4:30.49   |           0      |      20298
       2  |  4:30.49 |    2:55.19   |       20299      |      33442
       3  |  7:25.68 |    4:29.16   |       33443      |      53633
       4  | 11:55.09 |    4:58.16   |       53634      |      75999
       5  | 16:53.25 |    4:12.55   |       76000      |      94954
       6  | 21:06.05 |    3:50.38   |       94955      |     112242
       7  | 24:56.43 |    4:02.29   |      112243      |     130421
       8  | 28:58.72 |    2:50.15   |      130422      |     143186
       9  | 31:49.12 |    3:35.45   |      143187      |     159356
      10  | 35:24.57 |    4:45.30   |      159357      |     180761
      11  | 40:10.12 |    4:42.29   |      180762      |     201940
      12  | 44:52.41 |    3:53.21   |      201941      |     219436
      13  | 48:45.62 |    5:42.47   |      219437      |     245133
      14  | 54:28.34 |    2:33.62   |      245134      |     256670
      15  | 57:02.21 |    2:26.27   |      256671      |     267647
      16  | 59:28.48 |    5:10.16   |      267648      |     290913
      17  | 64:38.64 |    6:33.11   |      290914      |     320399
      18  | 71:12.00 |    3:27.22   |      320400      |     335946
Характеристики диапазона извлечения и сообщения об ошибках
Выбранный диапазон
     Имя файла E:\Downloads\200 знаменитых рок хитов СССР (1979-1991)(Flac+cue)\CD 05\Various - 200 знаменитых рок хитов СССР (1979-1991)CD5.wav
     Пиковый уровень 94.4 %
     Качество диапазона 95.2 %
     CRC теста FB1C1B0B
     CRC копии FB1C1B0B
     Копирование... OK
Ошибок не произошло
Конец отчёта

Отчёт auCDtect Task manager:

-----------------------
DON'T MODIFY THIS FILE
-----------------------
PERFORMER: auCDtect Task Manager, ver. 1.5.1RC6 build 1.5.1.7
Copyright (c) 2008-2010 y-soft. All rights reserved
http://y-soft.org
ANALYZER: auCDtect: CD records authenticity detector, version 0.8.2
Copyright (c) 2004 Oleg Berngardt. All rights reserved.
Copyright (c) 2004 Alexander Djourik. All rights reserved.
FILE: Various - 200 знаменитых рок хитов СССР (1979-1991)CD5.flac
  Size: 531015188 Hash: EE5A81BCBAF5A29CAC6532B70136836A Accuracy: -m0
  Conclusion: CDDA 100%
  Signature: 1E985A08BB351033ECAEED46980645B08E0F1E0A

Спектограмма:

(18 / 01:17:28)
090. Юрий Антонов - От печали до радости (1987) (04:00)
091. Бригада С - Гады (1987) (04:15)
092. Браво - Верю я (1987) (03:01)
093. Александр Барыкин - Букет (1987) (03:31)
094. Александр Градский - Песня о надежде (1987) (03:36)
095. Ария - Улица роз (1987) (05:54)
096. Юрий Лоза - Плот (1987) (05:10)
097. Александр Барыкин - Без тебя (1987) (05:57)
098. Секрет - Привет (1987) (03:00)
099. Мифы - Дом (1987) (04:10)
100. Браво - Жёлтые ботинки (1987) (03:26)
101. Настя Полева - Снежные волки (1987) (02:48)
102. Альянс - Смерти нет (1987) (04:15)
103. Чёрный Кофе - Владимирская Русь (1987) (05:16)
104. Александр Барыкин - Аэропорт (1987) (04:16)
105. Владимир Кузьмин - Когда меня ты позовёшь (1987) (05:26)
106. Бригада С - Playboy (1987) (04:48)
107. Чайф - Вольный ветер (1987) (03:55)

Отчёт ЕАС:

Exact Audio Copy V0.99 prebeta 5 from 4. May 2009
Отчёт EAC об извлечении, выполненном 14. марта 2013, 16:37
Various / 200 знаменитых рок хитов СССР (1979-1991)CD6
Дисковод: PIONER  BDR206   Adapter: 2  ID: 0
Режим чтения                 : Достоверность
Использование точного потока : Да
Отключение кэша аудио        : Да
Использование указателей C2  : Нет
Коррекция смещения при чтении                     : 0
Способность читать области Lead-in и Lead-out     : Нет
Заполнение пропущенных сэмплов тишиной            : Да
Удаление блоков с тишиной в начале и конце        : Нет
При вычислениях CRC использовались нулевые сэмплы : Нет
Интерфейс                                         : Встроенный Win32-интерфейс для Win NT/2000
Выходной формат          : Пользовательский кодировщик
Выбранный битрейт        : 768 kBit/s
Качество                 : Высокий
Добавление ID3-тэга      : Да
Утилита сжатия           : C:\Program Files\Exact Audio Copy\FLAC\FLAC.EXE
Дополнительные параметры : -8 -V -T "ARTIST=%a" -T "TITLE=%t" -T "ALBUM=%g" -T "DATE=%y" -T "TRACKNUMBER=%n" -T "GENRE=%m" -T "COMMENT=%e" %s -o %d
TOC извлечённого CD
     Трек |   Старт  | Длительность | Начальный сектор | Конечный сектор
    ---------------------------------------------------------------------
       1  |  0:00.00 |    4:02.63   |           0      |      18212
       2  |  4:02.63 |    4:17.16   |       18213      |      37503
       3  |  8:20.04 |    3:03.60   |       37504      |      51288
       4  | 11:23.64 |    3:33.61   |       51289      |      67324
       5  | 14:57.50 |    3:38.50   |       67325      |      83724
       6  | 18:36.25 |    5:56.38   |       83725      |     110462
       7  | 24:32.63 |    5:12.18   |      110463      |     133880
       8  | 29:45.06 |    5:59.02   |      133881      |     160807
       9  | 35:44.08 |    3:02.18   |      160808      |     174475
      10  | 38:46.26 |    4:12.21   |      174476      |     193396
      11  | 42:58.47 |    3:28.72   |      193397      |     209068
      12  | 46:27.44 |    2:50.61   |      209069      |     221879
      13  | 49:18.30 |    4:17.61   |      221880      |     241215
      14  | 53:36.16 |    5:18.68   |      241216      |     265133
      15  | 58:55.09 |    4:18.16   |      265134      |     284499
      16  | 63:13.25 |    5:28.42   |      284500      |     309141
      17  | 68:41.67 |    4:50.39   |      309142      |     330930
      18  | 73:32.31 |    3:55.66   |      330931      |     348621
Характеристики диапазона извлечения и сообщения об ошибках
Выбранный диапазон
     Имя файла E:\Downloads\200 знаменитых рок хитов СССР (1979-1991)(Flac+cue)\CD 06\Various - 200 знаменитых рок хитов СССР (1979-1991)CD6.wav
     Пиковый уровень 100.0 %
     Качество диапазона 100.0 %
     CRC теста 1B77F6A2
     CRC копии 1B77F6A2
     Копирование... OK
Ошибок не произошло
Конец отчёта

Отчёт auCDtect Task manager:

-----------------------
DON'T MODIFY THIS FILE
-----------------------
PERFORMER: auCDtect Task Manager, ver. 1.5.1RC6 build 1.5.1.7
Copyright (c) 2008-2010 y-soft. All rights reserved
http://y-soft.org
ANALYZER: auCDtect: CD records authenticity detector, version 0.8.2
Copyright (c) 2004 Oleg Berngardt. All rights reserved.
Copyright (c) 2004 Alexander Djourik. All rights reserved.
FILE: Various - 200 знаменитых рок хитов СССР (1979-1991)CD6.flac
  Size: 547808979 Hash: 7558324EB2E796CE34FFC9A7C44E1A0B Accuracy: -m0
  Conclusion: CDDA 100%
  Signature: 7B6540E7AC24C55B29AD02812298130F378B640C

Спектограмма:

(19 / 01:17:54)
108. Аквариум - Поезд в огне (1987) (03:37)
109. Браво - Старый отель (1987) (03:54)
110. Кино - Группа крови (1988) (04:41)
111. Наутилус Помпилиус - Я хочу быть с тобой (1988) (04:17)
112. Пикник - Я невидим (1988) (06:00)
113. Браво - Будь со мной (1988) (02:48)
114. Владимир Кузьмин - Вспоминай, когда наступит май (1988) (04:49)
115. Крематорий - Безобразная Эльза (1988) (02:55)
116. Аукцыон - Вечер мой (1988) (03:21)
117. ДДТ - Не стреляй! (1988) (04:18)
118. Игорь Тальков - Родина моя (1988) (06:48)
119. Кино - В наших глазах (1988) (03:32)
120. Браво - Чудесная страна (1988) (03:10)
121. Наутилус Помпилиус - Прощальное письмо (1988) (03:37)
122. Владимир Кузьмин - Капитан (1988) (04:40)
123. Пикник - Дай себя сорвать (1988) (05:01)
124. Крематорий - Маленькая девочка (1988) (02:07)
125. Звуки Му - Встань пораньше (1988) (02:31)
126. Владимир Кузьмин - Смотри на меня сегодня (1988) (05:03)

Отчёт ЕАС:

Exact Audio Copy V0.99 prebeta 5 from 4. May 2009
Отчёт EAC об извлечении, выполненном 14. марта 2013, 16:56
Va / 200 знаменитых рок хитов СССР (1979-1991)CD7
Дисковод: PIONER  BDR206   Adapter: 2  ID: 0
Режим чтения                 : Достоверность
Использование точного потока : Да
Отключение кэша аудио        : Да
Использование указателей C2  : Нет
Коррекция смещения при чтении                     : 0
Способность читать области Lead-in и Lead-out     : Нет
Заполнение пропущенных сэмплов тишиной            : Да
Удаление блоков с тишиной в начале и конце        : Нет
При вычислениях CRC использовались нулевые сэмплы : Нет
Интерфейс                                         : Встроенный Win32-интерфейс для Win NT/2000
Выходной формат          : Пользовательский кодировщик
Выбранный битрейт        : 768 kBit/s
Качество                 : Высокий
Добавление ID3-тэга      : Да
Утилита сжатия           : C:\Program Files\Exact Audio Copy\FLAC\FLAC.EXE
Дополнительные параметры : -8 -V -T "ARTIST=%a" -T "TITLE=%t" -T "ALBUM=%g" -T "DATE=%y" -T "TRACKNUMBER=%n" -T "GENRE=%m" -T "COMMENT=%e" %s -o %d
TOC извлечённого CD
     Трек |   Старт  | Длительность | Начальный сектор | Конечный сектор
    ---------------------------------------------------------------------
       1  |  0:00.00 |    3:39.23   |           0      |      16447
       2  |  3:39.23 |    3:56.10   |       16448      |      34157
       3  |  7:35.33 |    4:43.09   |       34158      |      55391
       4  | 12:18.42 |    4:19.35   |       55392      |      74851
       5  | 16:38.02 |    6:02.35   |       74852      |     102036
       6  | 22:40.37 |    2:50.16   |      102037      |     114802
       7  | 25:30.53 |    4:51.52   |      114803      |     136679
       8  | 30:22.30 |    2:57.41   |      136680      |     149995
       9  | 33:19.71 |    3:23.56   |      149996      |     165276
      10  | 36:43.52 |    4:20.30   |      165277      |     184806
      11  | 41:04.07 |    6:50.19   |      184807      |     215575
      12  | 47:54.26 |    3:34.28   |      215576      |     231653
      13  | 51:28.54 |    3:12.26   |      231654      |     246079
      14  | 54:41.05 |    3:39.13   |      246080      |     262517
      15  | 58:20.18 |    4:42.60   |      262518      |     283727
      16  | 63:03.03 |    5:03.66   |      283728      |     306518
      17  | 68:06.69 |    2:09.72   |      306519      |     316265
      18  | 70:16.66 |    2:33.43   |      316266      |     327783
      19  | 72:50.34 |    5:03.37   |      327784      |     350545
Характеристики диапазона извлечения и сообщения об ошибках
Выбранный диапазон
     Имя файла E:\Downloads\200 знаменитых рок хитов СССР (1979-1991)(Flac+cue)\CD 07\Va - 200 знаменитых рок хитов СССР (1979-1991)CD7.wav
     Пиковый уровень 100.0 %
     Качество диапазона 100.0 %
     CRC теста 6579BD96
     CRC копии 6579BD96
     Копирование... OK
Ошибок не произошло
Конец отчёта

Отчёт auCDtect Task manager:

-----------------------
DON'T MODIFY THIS FILE
-----------------------
PERFORMER: auCDtect Task Manager, ver. 1.5.1RC6 build 1.5.1.7
Copyright (c) 2008-2010 y-soft. All rights reserved
http://y-soft.org
ANALYZER: auCDtect: CD records authenticity detector, version 0.8.2
Copyright (c) 2004 Oleg Berngardt. All rights reserved.
Copyright (c) 2004 Alexander Djourik. All rights reserved.
FILE: Va - 200 знаменитых рок хитов СССР (1979-1991)CD7.flac
  Size: 537033858 Hash: 67FD7DED2B486E188E404FE75AC0FEB1 Accuracy: -m0
  Conclusion: CDDA 100%
  Signature: 53AA844DB2E8E17674F856B83C2A262C5971F2B8

Спектограмма:

(18 / 01:17:42)
127. Чёрный Кофе - Брожу по городу один (1989) (04:13)
128. Андрей Макаревич - Варьете (1989) (03:14)
129. Кино - Звезда по имени Солнце (1989) (03:42)
130. Любэ - Батька Махно (1989) (03:41)
131. Ария - Раб страха (1989) (04:32)
132. Александр Барыкин - Как жаль (1989) (05:05)
133. Владимир Кузьмин - Когда я стану другим (1989) (04:05)
134. Наутилус Помпилиус - Доктор твоего тела (1989) (04:31)
135. Воплі Відоплясова - Були деньки (1989) (02:47)
136. Кино - Пачка сигарет (1989) (04:25)
137. Диалог - Не уходи, мой ангел (1989) (05:24)
138. Настя Полева и Владимир Шахрин - Всему свое время (1989) (04:27)
139. Мифы - Болото (1993) (05:15)
140. Секрет - Домой (1989) (03:58)
141. АлисА - Шестой лесничий (1989) (05:57)
142. Андрей Макаревич - Паузы (1989) (02:15)
143. Александр Барыкин - Чили (1989) (04:12)
144. Ария - Что вы сделали с вашей мечтой (1989) (05:16)

Отчёт ЕАС:

Exact Audio Copy V0.99 prebeta 5 from 4. May 2009
Отчёт EAC об извлечении, выполненном 14. марта 2013, 17:08
Va / 200 знаменитых рок хитов СССР (1979-1991)CD8
Дисковод: PIONER  BDR206   Adapter: 2  ID: 0
Режим чтения                 : Достоверность
Использование точного потока : Да
Отключение кэша аудио        : Да
Использование указателей C2  : Нет
Коррекция смещения при чтении                     : 0
Способность читать области Lead-in и Lead-out     : Нет
Заполнение пропущенных сэмплов тишиной            : Да
Удаление блоков с тишиной в начале и конце        : Нет
При вычислениях CRC использовались нулевые сэмплы : Нет
Интерфейс                                         : Встроенный Win32-интерфейс для Win NT/2000
Выходной формат          : Пользовательский кодировщик
Выбранный битрейт        : 768 kBit/s
Качество                 : Высокий
Добавление ID3-тэга      : Да
Утилита сжатия           : C:\Program Files\Exact Audio Copy\FLAC\FLAC.EXE
Дополнительные параметры : -8 -V -T "ARTIST=%a" -T "TITLE=%t" -T "ALBUM=%g" -T "DATE=%y" -T "TRACKNUMBER=%n" -T "GENRE=%m" -T "COMMENT=%e" %s -o %d
TOC извлечённого CD
     Трек |   Старт  | Длительность | Начальный сектор | Конечный сектор
    ---------------------------------------------------------------------
       1  |  0:00.00 |    4:15.21   |           0      |      19145
       2  |  4:15.21 |    3:16.41   |       19146      |      33886
       3  |  7:31.62 |    3:44.57   |       33887      |      50743
       4  | 11:16.44 |    3:43.32   |       50744      |      67500
       5  | 15:00.01 |    4:34.06   |       67501      |      88056
       6  | 19:34.07 |    5:07.68   |       88057      |     111149
       7  | 24:42.00 |    4:07.03   |      111150      |     129677
       8  | 28:49.03 |    4:33.51   |      129678      |     150203
       9  | 33:22.54 |    2:49.60   |      150204      |     162938
      10  | 36:12.39 |    4:27.60   |      162939      |     183023
      11  | 40:40.24 |    5:26.45   |      183024      |     207518
      12  | 46:06.69 |    4:29.39   |      207519      |     227732
      13  | 50:36.33 |    5:17.60   |      227733      |     251567
      14  | 55:54.18 |    4:00.64   |      251568      |     269631
      15  | 59:55.07 |    5:59.23   |      269632      |     296579
      16  | 65:54.30 |    2:17.07   |      296580      |     306861
      17  | 68:11.37 |    4:14.32   |      306862      |     325943
      18  | 72:25.69 |    5:16.19   |      325944      |     349662
Характеристики диапазона извлечения и сообщения об ошибках
Выбранный диапазон
     Имя файла E:\Downloads\200 знаменитых рок хитов СССР (1979-1991)(Flac+cue)\CD 08\Va - 200 знаменитых рок хитов СССР (1979-1991)CD8.wav
     Пиковый уровень 100.0 %
     Качество диапазона 99.9 %
     CRC теста F5F74305
     CRC копии F5F74305
     Копирование... OK
Ошибок не произошло
Конец отчёта

Отчёт auCDtect Task manager:

-----------------------
DON'T MODIFY THIS FILE
-----------------------
PERFORMER: auCDtect Task Manager, ver. 1.5.1RC6 build 1.5.1.7
Copyright (c) 2008-2010 y-soft. All rights reserved
http://y-soft.org
ANALYZER: auCDtect: CD records authenticity detector, version 0.8.2
Copyright (c) 2004 Oleg Berngardt. All rights reserved.
Copyright (c) 2004 Alexander Djourik. All rights reserved.
FILE: Va - 200 знаменитых рок хитов СССР (1979-1991)CD8.flac
  Size: 536114201 Hash: 6080E618B07D57FEFE9540E3878B1313 Accuracy: -m0
  Conclusion: CDDA 100%
  Signature: 5F4BFF360602B6AC54D77C635F05D1A7FCB1BF6F

Спектограмма:

(18 / 01:18:21)
145. Брати Гадюкiни - Наркомани на городi (1989) (04:29)
146. Чёрный Кофе - Это-рок (1989) (04:00)
147. Любэ - Люберцы (1989) (03:00)
148. Наутилус Помпилиус - Казанова (1989) (04:00)
149. Владимир Кузьмин - Слезы в огне (1989) (04:46)
150. Игорь Тальков - Я вернусь (1989) (06:13)
151. Кино - Хочу перемен (1989) (04:54)
152. Евгений Потоцкий - Серый дождь (1990) (06:13)
153. Автограф - Город (1990) (04:25)
154. Калинов Мост - Вышло так (1990) (03:45)
155. Браво - Красный свет (1990) (03:08)
156. Кино - Кукушка (1990) (06:36)
157. Чайф - Оставь нам нашу любовь (1990) (04:44)
158. Юрий Лоза - Пой, моя гитара (1990) (04:40)
159. Наутилус Помпилиус - Падал тёплый снег (1990) (02:42)
160. Евгений Потоцкий - Хрустальный корабль (1990) (03:54)
161. Агата Кристи - Viva Kalman! (1990) (02:38)
162. Сектор Газа - Когда помрешь (1990) (03:33)

Отчёт ЕАС:

Exact Audio Copy V0.99 prebeta 5 from 4. May 2009
Отчёт EAC об извлечении, выполненном 14. марта 2013, 17:22
Various / 200 знаменитых рок хитов СССР (1979-1991)CD9
Дисковод: PIONER  BDR206   Adapter: 2  ID: 0
Режим чтения                 : Достоверность
Использование точного потока : Да
Отключение кэша аудио        : Да
Использование указателей C2  : Нет
Коррекция смещения при чтении                     : 0
Способность читать области Lead-in и Lead-out     : Нет
Заполнение пропущенных сэмплов тишиной            : Да
Удаление блоков с тишиной в начале и конце        : Нет
При вычислениях CRC использовались нулевые сэмплы : Нет
Интерфейс                                         : Встроенный Win32-интерфейс для Win NT/2000
Выходной формат          : Пользовательский кодировщик
Выбранный битрейт        : 768 kBit/s
Качество                 : Высокий
Добавление ID3-тэга      : Да
Утилита сжатия           : C:\Program Files\Exact Audio Copy\FLAC\FLAC.EXE
Дополнительные параметры : -8 -V -T "ARTIST=%a" -T "TITLE=%t" -T "ALBUM=%g" -T "DATE=%y" -T "TRACKNUMBER=%n" -T "GENRE=%m" -T "COMMENT=%e" %s -o %d
TOC извлечённого CD
     Трек |   Старт  | Длительность | Начальный сектор | Конечный сектор
    ---------------------------------------------------------------------
       1  |  0:00.00 |    4:31.02   |           0      |      20326
       2  |  4:31.02 |    4:02.27   |       20327      |      38503
       3  |  8:33.29 |    3:02.27   |       38504      |      52180
       4  | 11:35.56 |    4:02.61   |       52181      |      70391
       5  | 15:38.42 |    4:48.05   |       70392      |      91996
       6  | 20:26.47 |    6:15.21   |       91997      |     120142
       7  | 26:41.68 |    4:56.41   |      120143      |     142383
       8  | 31:38.34 |    6:15.39   |      142384      |     170547
       9  | 37:53.73 |    4:27.20   |      170548      |     190592
      10  | 42:21.18 |    3:47.08   |      190593      |     207625
      11  | 46:08.26 |    3:10.50   |      207626      |     221925
      12  | 49:19.01 |    6:38.63   |      221926      |     251838
      13  | 55:57.64 |    4:46.20   |      251839      |     273308
      14  | 60:44.09 |    4:42.00   |      273309      |     294458
      15  | 65:26.09 |    2:44.20   |      294459      |     306778
      16  | 68:10.29 |    3:56.35   |      306779      |     324513
      17  | 72:06.64 |    2:40.68   |      324514      |     336581
      18  | 74:47.57 |    3:33.29   |      336582      |     352585
Характеристики диапазона извлечения и сообщения об ошибках
Выбранный диапазон
     Имя файла E:\Downloads\200 знаменитых рок хитов СССР (1979-1991)(Flac+cue)\CD 09\Various - 200 знаменитых рок хитов СССР (1979-1991)CD9.wav
     Пиковый уровень 100.0 %
     Качество диапазона 100.0 %
     CRC теста A8EB9A9D
     CRC копии A8EB9A9D
     Копирование... OK
Ошибок не произошло
Конец отчёта

Отчёт auCDtect Task manager:

-----------------------
DON'T MODIFY THIS FILE
-----------------------
PERFORMER: auCDtect Task Manager, ver. 1.5.1RC6 build 1.5.1.7
Copyright (c) 2008-2010 y-soft. All rights reserved
http://y-soft.org
ANALYZER: auCDtect: CD records authenticity detector, version 0.8.2
Copyright (c) 2004 Oleg Berngardt. All rights reserved.
Copyright (c) 2004 Alexander Djourik. All rights reserved.
FILE: Various - 200 знаменитых рок хитов СССР (1979-1991)CD9.flac
  Size: 569437563 Hash: E40D5B2DEA31D9F0A0F6C9DA6B2ABA85 Accuracy: -m0
  Conclusion: CDDA 99%
  Signature: BB01CA30EE75970693A13703FDDBDA9CB196C90D

Спектограмма:

(19 / 01:18:44)
163. Игорь Тальков - Глобус (1990) (06:46)
164. Караван - Святая Русь (1990) (03:57)
165. Мегаполис - Утро (1990) (04:01)
166. Жанна Агузарова - Звезда (1990) (03:17)
167. ДДТ - Суббота, Ленинград (1990) (03:43)
168. Калинов Мост - Имя назвать (1990) (05:17)
169. Браво - Добрый вечер, Москва (1990) (02:51)
170. Чайф - Никто не услышит (Ой-йо) (1990) (04:23)
171. Кино – Нам с тобой (1990) (04:46)
172. Игорь Тальков - К Виктору Цою (1990) (05:11)
173. Евгений Потоцкий - Милый друг (1990) (03:43)
174. СВ - Сон (1990) (05:27)
175. Сектор Газа - Русский мат (1990) (02:21)
176. Наутилус Помпилиус - Чёрные птицы (1990) (03:15)
177. Ва-Банкъ - Хулиган (1991) (02:52)
178. Ария - Всё, что было (1991) (05:10)
179. Бригада С - Звезда микрорайона (1991) (04:08)
180. Наутилус Помпилиус - Прогулки по воде (1991) (03:41)
181. Александр Ситковецкий - Фантазм (1991) (03:10)

Отчёт ЕАС:

Exact Audio Copy V0.99 prebeta 5 from 4. May 2009
Отчёт EAC об извлечении, выполненном 14. марта 2013, 17:41
Various / 200 знаменитых рок хитов СССР (1979-1991)CD10
Дисковод: PIONER  BDR206   Adapter: 2  ID: 0
Режим чтения                 : Достоверность
Использование точного потока : Да
Отключение кэша аудио        : Да
Использование указателей C2  : Нет
Коррекция смещения при чтении                     : 0
Способность читать области Lead-in и Lead-out     : Нет
Заполнение пропущенных сэмплов тишиной            : Да
Удаление блоков с тишиной в начале и конце        : Нет
При вычислениях CRC использовались нулевые сэмплы : Нет
Интерфейс                                         : Встроенный Win32-интерфейс для Win NT/2000
Выходной формат          : Пользовательский кодировщик
Выбранный битрейт        : 768 kBit/s
Качество                 : Высокий
Добавление ID3-тэга      : Да
Утилита сжатия           : C:\Program Files\Exact Audio Copy\FLAC\FLAC.EXE
Дополнительные параметры : -8 -V -T "ARTIST=%a" -T "TITLE=%t" -T "ALBUM=%g" -T "DATE=%y" -T "TRACKNUMBER=%n" -T "GENRE=%m" -T "COMMENT=%e" %s -o %d
TOC извлечённого CD
     Трек |   Старт  | Длительность | Начальный сектор | Конечный сектор
    ---------------------------------------------------------------------
       1  |  0:00.00 |    6:48.63   |           0      |      30662
       2  |  6:48.63 |    3:59.11   |       30663      |      48598
       3  | 10:47.74 |    4:03.22   |       48599      |      66845
       4  | 14:51.21 |    3:19.38   |       66846      |      81808
       5  | 18:10.59 |    3:45.11   |       81809      |      98694
       6  | 21:55.70 |    5:19.35   |       98695      |     122654
       7  | 27:15.30 |    2:53.17   |      122655      |     135646
       8  | 30:08.47 |    4:25.44   |      135647      |     155565
       9  | 34:34.16 |    4:48.41   |      155566      |     177206
      10  | 39:22.57 |    5:13.33   |      177207      |     200714
      11  | 44:36.15 |    3:45.02   |      200715      |     217591
      12  | 48:21.17 |    5:29.67   |      217592      |     242333
      13  | 53:51.09 |    2:23.13   |      242334      |     253071
      14  | 56:14.22 |    3:17.56   |      253072      |     267902
      15  | 59:32.03 |    2:54.25   |      267903      |     280977
      16  | 62:26.28 |    5:12.41   |      280978      |     304418
      17  | 67:38.69 |    4:10.50   |      304419      |     323218
      18  | 71:49.44 |    3:43.29   |      323219      |     339972
      19  | 75:32.73 |    3:10.66   |      339973      |     354288
Характеристики диапазона извлечения и сообщения об ошибках
Выбранный диапазон
     Имя файла E:\Downloads\200 знаменитых рок хитов СССР (1979-1991)(Flac+cue)\CD 10\Various - 200 знаменитых рок хитов СССР (1979-1991)CD10.wav
     Пиковый уровень 100.0 %
     Качество диапазона 100.0 %
     CRC теста 82B865A4
     CRC копии 82B865A4
     Копирование... OK
Ошибок не произошло
Конец отчёта

Отчёт auCDtect Task manager:

-----------------------
DON'T MODIFY THIS FILE
-----------------------
PERFORMER: auCDtect Task Manager, ver. 1.5.1RC6 build 1.5.1.7
Copyright (c) 2008-2010 y-soft. All rights reserved
http://y-soft.org
ANALYZER: auCDtect: CD records authenticity detector, version 0.8.2
Copyright (c) 2004 Oleg Berngardt. All rights reserved.
Copyright (c) 2004 Alexander Djourik. All rights reserved.
FILE: Various - 200 знаменитых рок хитов СССР (1979-1991)CD10.flac
  Size: 557836631 Hash: ABC088366B0DDFD6C45A5ADBA31C7C6A Accuracy: -m0
  Conclusion: CDDA 99%
  Signature: 0A73796F87AF0CB20232D146F95EB031BEACA4BC

Спектограмма:

(19 / 01:17:25)
182. Ноль - Иду, курю (1991) (03:31)
183. Пикник - Мы, как трепетные птицы (1991) (04:49)
184. Моральный Кодекс - До свидания, мама! (1991) (03:04)
185. Рондо - Надувной корабль (1991) (04:56)
186. Машина времени - Костер (1991) (03:45)
187. Ольга Кормухина - Корабль (1991) (03:24)
188. Бригада С - Всё это рок-н-ролл (1991) (04:24)
189. Сектор Газа - Колхозный панк (1991) (03:32)
190. Альянс - Дальше, дальше (1991) (04:40)
191. ДДТ - Предчувствие гражданской войны (1991) (04:11)
192. Наутилус Помпилиус - На берегу безымянной реки (1991) (04:11)
193. Рондо - Я тебя недолюбил (1991) (04:03)
194. Пикник - Там, на самом краю земли (1991) (02:11)
195. Ария - Следуй за мной! (1991) (04:39)
196. Дмитрий Умецкий - Дорога в Иерусалим (1991) (05:09)
197. Разные люди - Мне не хватает свободы (1991) (04:59)
198. Ноль - Человек и кошка (1991) (03:50)
199. Сектор Газа - Местные (1991) (02:59)
200. Наутилус Помпилиус - Титаник (1991) (04:23)

Отчёт ЕАС:

Exact Audio Copy V0.99 prebeta 5 from 4. May 2009
Отчёт EAC об извлечении, выполненном 14. марта 2013, 18:04
Various / 200 знаменитых рок хитов СССР (1979-1991)CD11
Дисковод: PIONER  BDR206   Adapter: 2  ID: 0
Режим чтения                 : Достоверность
Использование точного потока : Да
Отключение кэша аудио        : Да
Использование указателей C2  : Нет
Коррекция смещения при чтении                     : 0
Способность читать области Lead-in и Lead-out     : Нет
Заполнение пропущенных сэмплов тишиной            : Да
Удаление блоков с тишиной в начале и конце        : Нет
При вычислениях CRC использовались нулевые сэмплы : Нет
Интерфейс                                         : Встроенный Win32-интерфейс для Win NT/2000
Выходной формат          : Пользовательский кодировщик
Выбранный битрейт        : 768 kBit/s
Качество                 : Высокий
Добавление ID3-тэга      : Да
Утилита сжатия           : C:\Program Files\Exact Audio Copy\FLAC\FLAC.EXE
Дополнительные параметры : -8 -V -T "ARTIST=%a" -T "TITLE=%t" -T "ALBUM=%g" -T "DATE=%y" -T "TRACKNUMBER=%n" -T "GENRE=%m" -T "COMMENT=%e" %s -o %d
TOC извлечённого CD
     Трек |   Старт  | Длительность | Начальный сектор | Конечный сектор
    ---------------------------------------------------------------------
       1  |  0:00.00 |    3:33.20   |           0      |      15994
       2  |  3:33.20 |    4:51.07   |       15995      |      37826
       3  |  8:24.27 |    3:06.67   |       37827      |      51843
       4  | 11:31.19 |    4:58.59   |       51844      |      74252
       5  | 16:30.03 |    3:47.71   |       74253      |      91348
       6  | 20:17.74 |    3:26.25   |       91349      |     106823
       7  | 23:44.24 |    4:26.65   |      106824      |     126838
       8  | 28:11.14 |    3:34.65   |      126839      |     142953
       9  | 31:46.04 |    4:42.69   |      142954      |     164172
      10  | 36:28.73 |    4:13.18   |      164173      |     183165
      11  | 40:42.16 |    4:13.17   |      183166      |     202157
      12  | 44:55.33 |    4:05.35   |      202158      |     220567
      13  | 49:00.68 |    2:13.09   |      220568      |     230551
      14  | 51:14.02 |    4:41.33   |      230552      |     251659
      15  | 55:55.35 |    5:11.01   |      251660      |     274985
      16  | 61:06.36 |    5:01.26   |      274986      |     297586
      17  | 66:07.62 |    3:52.50   |      297587      |     315036
      18  | 70:00.37 |    3:01.15   |      315037      |     328626
      19  | 73:01.52 |    4:23.18   |      328627      |     348369
Характеристики диапазона извлечения и сообщения об ошибках
Выбранный диапазон
     Имя файла E:\Downloads\200 знаменитых рок хитов СССР (1979-1991)(Flac+cue)\CD 11\Various - 200 знаменитых рок хитов СССР (1979-1991)CD11.wav
     Пиковый уровень 100.0 %
     Качество диапазона 100.0 %
     CRC теста 7EE22A01
     CRC копии 7EE22A01
     Копирование... OK
Ошибок не произошло
Конец отчёта

Отчёт auCDtect Task manager:

-----------------------
DON'T MODIFY THIS FILE
-----------------------
PERFORMER: auCDtect Task Manager, ver. 1.5.1RC6 build 1.5.1.7
Copyright (c) 2008-2010 y-soft. All rights reserved
http://y-soft.org
ANALYZER: auCDtect: CD records authenticity detector, version 0.8.2
Copyright (c) 2004 Oleg Berngardt. All rights reserved.
Copyright (c) 2004 Alexander Djourik. All rights reserved.
FILE: Various - 200 знаменитых рок хитов СССР (1979-1991)CD11.flac
  Size: 551112128 Hash: B4D94BCF50CD56FA5239840B11A26E09 Accuracy: -m0
  Conclusion: CDDA 100%
  Signature: 936E139F1D350C453F2ABF04AB507F22A66EFB9B

Спектограмма:

Дополнительная информация:

В связи стем, что в клубе уже была попытка выложить этот сет (забракована из-за апконверта), к каждому диску выкладываю спектрограммы.
Время раздачи: 24/7 - круглосуточно
Для Вас это просто
, а мне приятно!

[Цитировать]



Показать сообщения:    

Текущее время: 27-Мар 04:57

Часовой пояс: UTC + 6


Вы не можете начинать темы
Вы не можете отвечать на сообщения
Вы не можете редактировать свои сообщения
Вы не можете удалять свои сообщения
Вы не можете голосовать в опросах
Вы не можете прикреплять файлы к сообщениям
Вы не можете скачивать файлы

!ВНИМАНИЕ!
Сайт не предоставляет электронные версии произведений, а занимается лишь коллекционированием и каталогизацией ссылок, присылаемых и публикуемых на форуме нашими читателями. Если вы являетесь правообладателем какого-либо представленного материала и не желаете, чтобы ссылка на него находилась в нашем каталоге, свяжитесь с нами, и мы незамедлительно удалим ее. Файлы для обмена на трекере предоставлены пользователями сайта, и администрация не несет ответственности за их содержание. Просьба не заливать файлы, защищенные авторскими правами, а также файлы нелегального содержания!