[ Сегодня идет свободное скачивание без начисления Download ]


Статистика раздачи
Нет
 
   
 
Top  
 
 
-Земля до начала времен (13 фильмов) / The Land Before Time (1988-2007) DVDRip- Русское название: Земля до начала времен
Оригинальное название: The Land Before Time
Год выпуска: 1988-2007
Жанр: Рисованная анимация, Детский
Перевод: Дублированный / Многоголосый закадровый, профессиональный (Первый фильм)
Субтитры: Отсутствуют
Режиссёр: Дон Блут / Don Bluth, Рой Аллен Смит / Roy Allen Smith, Чарльз Гросвенор / Charles Grosvenor, Джэми Митчел / Jamie Mitchell
Описание:
Было время, когда нога человека еще не ступала на Землю. То было время извергающихся вулканов, громадных землетрясений и ужасных катаклизмов. Наша планета тогда была населена удивительными и странными существами.
Герой этого мультика, очаровательный бронтозаврик Крошки-Ножки, отправился на поиски легендарной Великой Долины, где по слухам можно неплохо подкрепиться. По пути он прихватил с собой в путешествие еще четырех малышей-динозавриков. В дороге эту пеструю компанию поджидают удивительные и опасные приключения...

Благодарность за рип: dragomire
Продолжительность: ~15:05:00
Качество видео: DVDRip
Видеокодек: Xvid
Битрейт видео: ~1300 kbps avg
Размер кадра: 640x480 (1-11 фильмы), 688x384 (12-13 фильмы)
Аудиокодек: MP3, 2 канала
Битрейт аудио: ~128 kbpsЗемля до начала времен / The Land Before Time (1988) DVDRip- Русское название: Земля до начала времен
Оригинальное название: The Land Before Time
Страна: США, Ирландия
Жанр: приключения, семейный, мультфильм
Год выпуска: 1988
Рeжиссёр: Дон Блут / Don Bluth
Роли озвучивали: Гэбриел Дэймон, Кендес Хатсон, Джудит Барси, Уилл Райян, Пэт Хингл, Хелен Шейвер, Бёрк Бирнс, Bill Erwin
Oписание: Было время, когда нога человека еще не ступала на Землю. То было время извергающихся вулканов, громадных землетрясений и ужасных катаклизмов. Наша планета тогда была населена удивительными и странными существами.
Герой этого мультика, очаровательный бронтозаврик Крошки-Ножки, отправился на поиски легендарной Великой Долины, где по слухам можно неплохо подкрепиться. По пути он прихватил с собой в путешествие еще четырех малышей-динозавриков. В дороге эту пеструю компанию поджидают удивительные и опасные приключения.

Перeвод: Профессиональный (многоголосый закадровый)
Субтитры: нет
Прoдолжительность: 01:05:52
Качество: DVDRip
Формат: AVI
Видео: 640x480 (1.33:1), 25.000 fps, XviD, ~1 445 kbps avg, 0.19 bit/pixel
Аудио: 48.0 kHz, MPEG Layer 3, 2/0 (L,R) ch, ~128 kbps

МедиаИнфо:

Видео
Идентификатор : 0
Формат : MPEG-4 Visual
Профиль формата : Advanced Simple@L5
Параметр BVOP формата : 1
Параметр QPel формата : Нет
Параметр GMC формата : Без точки перехода
Параметр матрицы формата : Выборочная
Идентификатор кодека : XVID
Идентификатор кодека/Подсказка : XviD
Продолжительность : 1 ч. 5 м.
Битрейт : 1445 Кбит/сек
Ширина : 640 пикселей
Высота : 480 пикселей
Соотношение сторон : 4:3
Частота кадров : 25,000 кадров/сек
Цветовое пространство : YUV
Субдискретизация насыщенности : 4:2:0
Битовая глубина : 8 бит
Тип развёртки : Прогрессивная
Метод сжатия : С потерями
Бит/(Пиксели*Кадры) : 0.188
Размер потока : 681 Мбайт (91%)
Библиотека кодирования : XviD 63
Аудио
Идентификатор : 1
Формат : MPEG Audio
Версия формата : Version 1
Профиль формата : Layer 3
Идентификатор кодека : 55
Идентификатор кодека/Подсказка : MP3
Продолжительность : 1 ч. 5 м.
Вид битрейта : Постоянный
Битрейт : 128 Кбит/сек
Каналы : 2 канала
Частота : 48,0 КГц
Метод сжатия : С потерями
Задержка видео : 384 мс.
Размер потока : 60,3 Мбайт (8%)
Выравнивание : Соединение по промежуткам
Продолжительность промежутка : 40 мс. (1,00 видеокадр)
Время предзагрузки промежутка : 504 мс.
Библиотека кодирования : LAME3.98r
Настройки программы : -m s -V 4 -q 2 -lowpass 17 -b 128
Скриншоты:
Земля До Начала Времен 2: Приключения В Великой Долине / The Land Before Time II: The Great Valley Adventure (1994) DVDRip- Русское название: Земля До Начала Времен 2: Приключения В Великой Долине
Оригинальное название: The Land Before Time II: The Great Valley Adventure
Страна: США
Жанр: приключения, семейный, мультфильм
Год выпуска: 1994
Рeжиссёр: Рой Аллен Смит / Roy Allen Smith
Роли озвучивали: Скотт МакЭфи, Кендес Хатсон, Хезер Хоган, Джефф Беннетт, Роб Полсен, Линда Гэри, Кеннет Марс, Джон Ингл, Тресс МакНилл
Oписание:
Действие второй части происходит в знакомой Вам миролюбивой Великой Долине, где резвятся малыши — динозаврики под присмотром своих родителей. Но однажды непоседливые ребята ускользнули из-под бдительного ока своих родных и оказались именно там, где неопытных детишек подстерегают неожиданности и опасности.
Приключения начинаются! Динозавриков ждут встречи с новыми знакомыми: воришками Оззи и Стратом, со страшными Острозубами и… таинственным яйцом!

Перeвод: Профессиональный (дублированный)
Субтитры: нет
Прoдoлжительность: 01:13:03
Качество: DVDRip
Формат: AVI
Видео: 640x480 (1.33:1), 23.976 fps, XviD, ~1 292 kbps avg, 0.17 bit/pixel
Аудио: 48.0 kHz, MPEG Layer 3, 2/0 (L,R) ch, ~128 kbps

МедиаИнфо:

Видео
Идентификатор : 0
Формат : MPEG-4 Visual
Профиль формата : Advanced Simple@L5
Параметр BVOP формата : 1
Параметр QPel формата : Нет
Параметр GMC формата : Без точки перехода
Параметр матрицы формата : Выборочная
Идентификатор кодека : XVID
Идентификатор кодека/Подсказка : XviD
Продолжительность : 1 ч. 13 м.
Битрейт : 1292 Кбит/сек
Ширина : 640 пикселей
Высота : 480 пикселей
Соотношение сторон : 4:3
Частота кадров : 23,976 кадра/сек
Цветовое пространство : YUV
Субдискретизация насыщенности : 4:2:0
Битовая глубина : 8 бит
Тип развёртки : Прогрессивная
Метод сжатия : С потерями
Бит/(Пиксели*Кадры) : 0.175
Размер потока : 675 Мбайт (90%)
Библиотека кодирования : XviD 63
Аудио
Идентификатор : 1
Формат : MPEG Audio
Версия формата : Version 1
Профиль формата : Layer 3
Режим : Joint stereo
Расширение режима : MS Stereo
Идентификатор кодека : 55
Идентификатор кодека/Подсказка : MP3
Продолжительность : 1 ч. 13 м.
Вид битрейта : Постоянный
Битрейт : 128 Кбит/сек
Каналы : 2 канала
Частота : 48,0 КГц
Метод сжатия : С потерями
Размер потока : 66,9 Мбайт (9%)
Выравнивание : Соединение по промежуткам
Продолжительность промежутка : 42 мс. (1,00 видеокадр)
Время предзагрузки промежутка : 504 мс.
Скриншоты:
Земля До Начала Времен 3: В Поисках Воды / The Land Before Time III: The Time of the Great Givingpic (1995) DVDRip- Русское название: Земля До Начала Времен 3: В Поисках Воды
Оригинальное название:The Land Before Time III: The Time of the Great GivingpicСтрана: pic США
Жанр: мультфильм, приключения, семейный
Год выпуска: 1995
Рeжиссёр: Рой Аллен Смит / Roy Allen Smith
Роли озвучивали: Скотт МакЭфи, Кендес Хатсон, Хезер Хоган, Джефф Беннетт, Роб Полсен, Джон Ингл, Линда Гэри, Уайтби Хертфорд, Николас Гест, Тресс МакНилл
Описaние:
Случилось так, что однажды на Великую Долину упал большой метеорит, который отрезал местных жителей от запасов воды. Среди некогда миролюбивых динозавров начинает расти напряжение.
Крошки-Ножки и его друзья решают помочь родителям и «прорвать блокаду»: динозаврики отправляются на поиски воды. И, о чудо! Нашим маленьким смельчакам посчастливилось найти новый водоем! Но он располагается между Великой Долиной и теми жуткими, таинственным местами, где обитают страшные Острозубы…

Перeвод: Профессиональный (дублированный)
Субтитры: нет
Прoдолжительность: 01:10:43
Качество: DVDRip
Формат: AVI
Видео: 640x480 (1.33:1), 23.976 fps, XviD, ~1 338 kbps avg, 0.18 bit/pixel
Аудио: 48.0 kHz, MPEG Layer 3, 2/0 (L,R) ch, ~128 kbps

МедиаИнфо:

Видео
Идентификатор : 0
Формат : MPEG-4 Visual
Профиль формата : Advanced Simple@L5
Параметр BVOP формата : 1
Параметр QPel формата : Нет
Параметр GMC формата : Без точки перехода
Параметр матрицы формата : Default (MPEG)
Идентификатор кодека : XVID
Идентификатор кодека/Подсказка : XviD
Продолжительность : 1 ч. 10 м.
Битрейт : 1338 Кбит/сек
Ширина : 640 пикселей
Высота : 480 пикселей
Соотношение сторон : 4:3
Частота кадров : 23,976 кадра/сек
Цветовое пространство : YUV
Субдискретизация насыщенности : 4:2:0
Битовая глубина : 8 бит
Тип развёртки : Прогрессивная
Метод сжатия : С потерями
Бит/(Пиксели*Кадры) : 0.182
Размер потока : 677 Мбайт (91%)
Библиотека кодирования : XviD 63
Аудио
Идентификатор : 1
Формат : MPEG Audio
Версия формата : Version 1
Профиль формата : Layer 3
Режим : Joint stereo
Расширение режима : MS Stereo
Идентификатор кодека : 55
Идентификатор кодека/Подсказка : MP3
Продолжительность : 1 ч. 10 м.
Вид битрейта : Постоянный
Битрейт : 128 Кбит/сек
Каналы : 2 канала
Частота : 48,0 КГц
Метод сжатия : С потерями
Размер потока : 64,8 Мбайт (9%)
Выравнивание : Соединение по промежуткам
Продолжительность промежутка : 42 мс. (1,00 видеокадр)
Время предзагрузки промежутка : 504 мс.
Скриншоты:
Земля До Начала Времен 4: Путешествие В Землю Туманов / The Land Before Time IV: Journey Through the Mists (1996) DVDRip- Русское название: Земля До Начала Времен 4: Путешествие В Землю Туманов
Оригинальное название: The Land Before Time IV: Journey Through the Mistspic
Страна: США
Жанр: мультфильм, приключения, семейный
Год выпуска:: 1996
Рeжиссёр: Рой Аллен Смит / Roy Allen Smith
Роли озвучивали: Джон Ингл, Кендес Хатсон, Хезер Хоган, Роб Полсен, Джефф Беннетт, Скотт МакЭфи, Кеннет Марс, Линда Гэри, Кэрол Брюс, Джулиана Хансен
Описaние:
Обитателей Великой Долины ждут новости! Бродячая стая Длинношеих поведала о том, что погода за пределами долины испортилась: далекая область, что некогда именовалась Сухой Землей, теперь превратилась в Землю Туманов. Там стали появляться странные, неизвестные существа; и поговаривают, что посещение дождливых мест стало делом небезопасным.
Впрочем, никто из беспечных жителей Великой Долины и не пошел бы туда, если бы не возникла необходимость: дедушка бронтозаврика Крошки-Ножки заболел. Помочь ему могуттолько лепестки золотистого Ночного Цветка, который растет лишь в… Земле Туманов! Теперь нужно снаряжать спасательную экспедицию за лекарством для дедушки. Приключения начинаются: наши очаровательные малыши отправляются в опасное путешествие в Землю Туманов за Ночным Цветком!

Перeвод: Профессиональный (дублированный)
Субтитры: нет
Прoдолжительнoсть: 01:13:52
Качество: DVDRip
Формат: AVI
Видео: 640x480 (1.33:1), 23.976 fps, XviD, ~1 276 kbps avg, 0.17 bit/pixel
Аудио: 48.0 kHz, MPEG Layer 3, 2/0 (L,R) ch, ~128 kbps

МедиаИнфо:

Видео
Идентификатор : 0
Формат : MPEG-4 Visual
Профиль формата : Advanced Simple@L5
Параметр BVOP формата : 1
Параметр QPel формата : Нет
Параметр GMC формата : Без точки перехода
Параметр матрицы формата : Выборочная
Идентификатор кодека : XVID
Идентификатор кодека/Подсказка : XviD
Продолжительность : 1 ч. 13 м.
Битрейт : 1276 Кбит/сек
Ширина : 640 пикселей
Высота : 480 пикселей
Соотношение сторон : 4:3
Частота кадров : 23,976 кадра/сек
Цветовое пространство : YUV
Субдискретизация насыщенности : 4:2:0
Битовая глубина : 8 бит
Тип развёртки : Прогрессивная
Метод сжатия : С потерями
Бит/(Пиксели*Кадры) : 0.173
Размер потока : 674 Мбайт (90%)
Библиотека кодирования : XviD 63
Аудио
Идентификатор : 1
Формат : MPEG Audio
Версия формата : Version 1
Профиль формата : Layer 3
Режим : Joint stereo
Расширение режима : MS Stereo
Идентификатор кодека : 55
Идентификатор кодека/Подсказка : MP3
Продолжительность : 1 ч. 13 м.
Вид битрейта : Постоянный
Битрейт : 128 Кбит/сек
Каналы : 2 канала
Частота : 48,0 КГц
Метод сжатия : С потерями
Размер потока : 67,6 Мбайт (9%)
Выравнивание : Соединение по промежуткам
Продолжительность промежутка : 42 мс. (1,00 видеокадр)
Время предзагрузки промежутка : 504 мс.
Скриншоты:
Земля До Начала Времен 5: Таинственный Остров / The Land Before Time V: The Mysterious Islandpic (1997) DVDRip- Русское название: Земля До Начала Времен 5: Таинственный Остров
Оригинальное название: The Land Before Time V: The Mysterious Islandpic
Страна: США
Жанр: мультфильм, приключения, семейный
Год выпуска: 1997
Рeжиссёр: Чарльз Гросвенор / Charles Grosvenor
Роли озвучивали: Джон Ингл, Брэндон Лакруа, Ария Ноэль Курзон, Роб Полсен, Энди МакЭфи, Джефф Беннетт, Кеннет Марс, Мириам Флинн, Тресс МакНилл, Кэннон Янг
Описaние:
Великая Долина всегда была тем единственным местом, где динозавры всех мастей жили в мире и взаимном согласии. Еды повсюду было предостаточно, и по сему обитатели Великой Долины прибывали в сытости, спокойствии и миролюбии.
Но, к несчастью, этой идиллии не суждено было длиться вечно: Великая Долина подверглась нашествию прожорливой саранчи, которая обглодала в округе все листья. Флегматичные травоядные ящеры в одночасье лишились всех запасов пропитания; теперь придется ждать до тех пор, пока в Великой Долине снова вырастут листья!
Пока взрослые динозавры препирались, как им быть дальше и где искать еду, Крошки-Ножки и его веселая компания отправились в путешествие. Путь маленьких героев лежал через Большую Воду к берегам Таинственного Острова!

Перeвод: Профессиональный (дублированный)
Субтитры: нет
Прoдoлжительность: 01:13:26
Качество: DVDRip
Формат: AVI
Видео: 640x480 (1.33:1), 23.976 fps, XviD, ~1 283 kbps avg, 0.17 bit/pixel
Аудио: 48.0 kHz, MPEG Layer 3, 2/0 (L,R) ch, ~128 kbps

МедиаИнфо:

Видео
Идентификатор : 0
Формат : MPEG-4 Visual
Профиль формата : Advanced Simple@L5
Параметр BVOP формата : 1
Параметр QPel формата : Нет
Параметр GMC формата : Без точки перехода
Параметр матрицы формата : Выборочная
Идентификатор кодека : XVID
Идентификатор кодека/Подсказка : XviD
Продолжительность : 1 ч. 13 м.
Битрейт : 1283 Кбит/сек
Ширина : 640 пикселей
Высота : 480 пикселей
Соотношение сторон : 4:3
Частота кадров : 23,976 кадра/сек
Цветовое пространство : YUV
Субдискретизация насыщенности : 4:2:0
Битовая глубина : 8 бит
Тип развёртки : Прогрессивная
Метод сжатия : С потерями
Бит/(Пиксели*Кадры) : 0.174
Размер потока : 674 Мбайт (90%)
Библиотека кодирования : XviD 63
Аудио
Идентификатор : 1
Формат : MPEG Audio
Версия формата : Version 1
Профиль формата : Layer 3
Режим : Joint stereo
Расширение режима : MS Stereo
Идентификатор кодека : 55
Идентификатор кодека/Подсказка : MP3
Продолжительность : 1 ч. 13 м.
Вид битрейта : Постоянный
Битрейт : 128 Кбит/сек
Каналы : 2 канала
Частота : 48,0 КГц
Метод сжатия : С потерями
Размер потока : 67,2 Мбайт (9%)
Выравнивание : Соединение по промежуткам
Продолжительность промежутка : 42 мс. (1,00 видеокадр)
Время предзагрузки промежутка : 504 мс.
Скриншоты:
Земля До Начала Времен 6: Тайна Скалы Динозавров / The Land Before Time VI: The Secret of Saurus Rock (1998) DVDRip- Русское название: Земля До Начала Времен 6: Тайна Скалы Динозавров
Оригинальное название: The Land Before Time VI: The Secret of Saurus Rock
Страна: США
Жанр: мультфильм, приключения, семейный
Год выпуска: 1998
Рeжиссёр: Чарльз Гросвенор / Charles Grosvenor
Роли озвучивали: Томас Деккер, Кеннет Марс, Энди МакЭфи, Ария Ноэль Курзон, Джефф Беннетт, Нэнси Картрайт, Сэнди Фокс, Мириам Флинн, Джон Ингл, Дэнни Манн
Описaние:
На самом краю Великой Долины высится загадочная Скала Динозавров. Легенды гласят, что именно она защищает жителей долины от зла. Рассказывают также о бесстрашном герое — Одиноком Динозавре, который много лет назад отстоял Великую Долину и спас ее от свирепых хищников Острозубов. Но существовал ли он в действительности?
Недавно в окрестностях Великой Долины объявился странный динозавр, по имени Док, с длинной шеей и сильным хвостом. Наш герой Крошки-Ножки уверен, что Док и есть отважный Одинокий Динозавр. Так ли это? Компания непоседливых малышей уже отправилась в поход к Скале Динозаворов, чтобы узнать всю правду. Вслед за ними в опасные места отправляются и Крошки-Ножки с друзьями.
В этот раз динозаврикам предстоит встретиться с Острозубами лицом к лицу!

Перeвод: Профессиональный (дублированный)
Субтитры: нет
Прoдoлжительность: 01:13:22
Качество: DVDRip
Формат: AVI
Видео: 640x480 (1.33:1), 25.000 fps, XviD, ~1 285 kbps avg, 0.17 bit/pixel
Аудио: 48.0 kHz, MPEG Layer 3, 2/0 (L,R) ch, ~128 kbps

МедиаИнфо:

Видео
Идентификатор : 0
Формат : MPEG-4 Visual
Профиль формата : Advanced Simple@L5
Параметр BVOP формата : 1
Параметр QPel формата : Нет
Параметр GMC формата : Без точки перехода
Параметр матрицы формата : Default (MPEG)
Идентификатор кодека : XVID
Идентификатор кодека/Подсказка : XviD
Продолжительность : 1 ч. 13 м.
Битрейт : 1285 Кбит/сек
Ширина : 640 пикселей
Высота : 480 пикселей
Соотношение сторон : 4:3
Частота кадров : 25,000 кадров/сек
Цветовое пространство : YUV
Субдискретизация насыщенности : 4:2:0
Битовая глубина : 8 бит
Тип развёртки : Прогрессивная
Метод сжатия : С потерями
Бит/(Пиксели*Кадры) : 0.167
Размер потока : 674 Мбайт (90%)
Библиотека кодирования : XviD 1.2.1 (UTC 2008-12-04)
Аудио
Идентификатор : 1
Формат : MPEG Audio
Версия формата : Version 1
Профиль формата : Layer 3
Идентификатор кодека : 55
Идентификатор кодека/Подсказка : MP3
Продолжительность : 1 ч. 13 м.
Вид битрейта : Постоянный
Битрейт : 128 Кбит/сек
Каналы : 2 канала
Частота : 48,0 КГц
Метод сжатия : С потерями
Размер потока : 67,2 Мбайт (9%)
Выравнивание : Соединение по промежуткам
Продолжительность промежутка : 40 мс. (1,00 видеокадр)
Время предзагрузки промежутка : 504 мс.
Библиотека кодирования : LAME3.98r
Настройки программы : -m s -V 4 -q 2 -lowpass 17 -b 128
Скриншоты:
Земля До Начала Времен 7: Камень Холодного Огня / The Land Before Time VII: The Stone of Cold Fire (2000) DVDRip- Русское название: Земля До Начала Времен 7: Камень Холодного Огня
Оригинальное название: The Land Before Time VII: The Stone of Cold Fire
Страна: США
Жанр: мультфильм, приключения, семейный
Год выпуска: 2000
Рeжиссёр: Чарльз Гросвенор / Charles Grosvenor
Роли озвучивали: Роб Полсен, Кеннет Марс, Мириам Флинн, Джефф Беннетт, Джим Каммингс, Ария Ноэль Курзон, Томас Деккер, Патти Дьютч, Zo? Gulliksen, Джон Ингл
Описaние:
Малыш Крошки-Ножки стал единственным свидетелем невероятной события: на его глазах, прямо с ночных небес упал «Камень Холодного Огня». Таинственный огненный камень приземлился где-то в районе Дымящихся Гор.
Наш маленький герой поспешил сообщить об этом удивительном происшествии местным обитателям, но ему никто не поверил. Чтобы доказать своюправоту, Крожки Ножки собирает экспедицию из своих очаровательньх друзеи-динозавриков и отправляется в захватывающее путешествие на поиски «Камня Холодного Огня».

Перeвод: Профессиональный (дублированный)
Субтитры: нет
Прoдoлжительность: 01:11:18
Качество: DVDRip
Формат: AVI
Видео: 640x480 (1.33:1), 25.000 fps, XviD, ~1 326 kbps avg, 0.17 bit/pixel
Аудио: 48.0 kHz, MPEG Layer 3, 2/0 (L,R) ch, ~128 kbps

МедиаИнфо:

Видео
Идентификатор : 0
Формат : MPEG-4 Visual
Профиль формата : Advanced Simple@L5
Параметр BVOP формата : 1
Параметр QPel формата : Нет
Параметр GMC формата : Без точки перехода
Параметр матрицы формата : Default (MPEG)
Идентификатор кодека : XVID
Идентификатор кодека/Подсказка : XviD
Продолжительность : 1 ч. 11 м.
Битрейт : 1326 Кбит/сек
Ширина : 640 пикселей
Высота : 480 пикселей
Соотношение сторон : 4:3
Частота кадров : 25,000 кадров/сек
Цветовое пространство : YUV
Субдискретизация насыщенности : 4:2:0
Битовая глубина : 8 бит
Тип развёртки : Прогрессивная
Метод сжатия : С потерями
Бит/(Пиксели*Кадры) : 0.173
Размер потока : 676 Мбайт (91%)
Библиотека кодирования : XviD 1.2.1 (UTC 2008-12-04)
Аудио
Идентификатор : 1
Формат : MPEG Audio
Версия формата : Version 1
Профиль формата : Layer 3
Идентификатор кодека : 55
Идентификатор кодека/Подсказка : MP3
Продолжительность : 1 ч. 11 м.
Вид битрейта : Постоянный
Битрейт : 128 Кбит/сек
Каналы : 2 канала
Частота : 48,0 КГц
Метод сжатия : С потерями
Размер потока : 65,3 Мбайт (9%)
Выравнивание : Соединение по промежуткам
Продолжительность промежутка : 40 мс. (1,00 видеокадр)
Время предзагрузки промежутка : 504 мс.
Библиотека кодирования : LAME3.98r
Настройки программы : -m s -V 4 -q 2 -lowpass 17 -b 128
Скриншоты:
Земля До Начала Времен 8: Великая Стужа / The Land Before Time VIII: The big freeze (2001) DVDRip- Русское название: Земля До Начала Времен 8: Великая Стужа
Оригинальное название: The Land Before Time VIII: The big freeze
Страна: США
Жанр: мультфильм, приключения, семейный
Год выпуска: 2001
Рeжиссёр: Чарльз Гросвенор / Charles Grosvenor
Роли озвучивали: Джон Ингл, Ария Ноэль Курзон, Роб Полсен, Томас Деккер, Энди МакЭфи, Джефф Беннетт, Тресс МакНилл, Сьюзан Кребс, Джереми Суарес, Кеннет Марс
Описaние:
Случилось чудо! В великой долине впервые выпал снег, и здешним жителям впервые посчастливилось наблюдать это удивительное природное явление! Но восторг быстро сменился тревогой: ящеры начали понимать, что совершенно не приспособлены к зиме, и наступившая стужа может стать их погибелью.
А тут еще, как раз некстати, начались проблемы с нашим старым знакомым — малышом Спайком. После визита к компании кочующих стегозавров Спайк решил отправиться со своими новыми знакомыми в нелегкий путь, подальше от холода. И теперь Крошки-Ножки и компания собираются в опасное путешествие по спасению своего непоседы-друга!

Перeвод: Профессиональный (дублированный)
Субтитры: нет
Прoдoлжитeльность: 01:13:44
Качество: DVDRip
Формат: AVI
Видео: 640x480 (1.33:1), 25.000 fps, XviD, ~1 278 kbps avg, 0.17 bit/pixel
Аудио: 48.0 kHz, MPEG Layer 3, 2/0 (L,R) ch, ~128 kbps

МедиаИнфо:

Видео
Идентификатор : 0
Формат : MPEG-4 Visual
Профиль формата : Advanced Simple@L5
Параметр BVOP формата : 1
Параметр QPel формата : Нет
Параметр GMC формата : Без точки перехода
Параметр матрицы формата : Выборочная
Идентификатор кодека : XVID
Идентификатор кодека/Подсказка : XviD
Продолжительность : 1 ч. 13 м.
Битрейт : 1278 Кбит/сек
Ширина : 640 пикселей
Высота : 480 пикселей
Соотношение сторон : 4:3
Частота кадров : 25,000 кадров/сек
Цветовое пространство : YUV
Субдискретизация насыщенности : 4:2:0
Битовая глубина : 8 бит
Тип развёртки : Прогрессивная
Метод сжатия : С потерями
Бит/(Пиксели*Кадры) : 0.166
Размер потока : 674 Мбайт (90%)
Библиотека кодирования : XviD 63
Аудио
Идентификатор : 1
Формат : MPEG Audio
Версия формата : Version 1
Профиль формата : Layer 3
Идентификатор кодека : 55
Идентификатор кодека/Подсказка : MP3
Продолжительность : 1 ч. 13 м.
Вид битрейта : Постоянный
Битрейт : 128 Кбит/сек
Каналы : 2 канала
Частота : 48,0 КГц
Метод сжатия : С потерями
Размер потока : 67,5 Мбайт (9%)
Выравнивание : Соединение по промежуткам
Продолжительность промежутка : 40 мс. (1,00 видеокадр)
Время предзагрузки промежутка : 504 мс.
Библиотека кодирования : LAME3.98r
Настройки программы : -m s -V 4 -q 2 -lowpass 17 -b 128
Скриншоты:
Земля До Начала Времен 9: Путешествие к Большой Воде / The Land Before Time IX: Journey to the Big Water (2002) DVDRip- Русское название: Земля До Начала Времен 9: Путешествие к Большой Воде
Оригинальное название: The Land Before Time IX: Journey to the Big Water
Страна: США
Жанр: мультфильм, приключения, семейный
Год выпуска: 2002
Рeжиссёр: Чарльз Гросвенор / Charles Grosvenor
Роли озвучивали: Джон Ингл, Кеннет Марс, Мириам Флинн, Томас Деккер, Энди МакЭфи, Ария Ноэль Курзон, Роб Полсен, Тресс МакНилл, Джефф Беннетт, Nicole Dault
Описaние:
После сильнейших дождей в Великой Долине образовалась таинственная «новая вода». Малыш Крошки-Ножки решает отправиться в поход, чтобы как можно быстрее самому увидеть «новую достопримечательность».
Здесь наш герой знакомится с весельчаком Мо, забавным, похожим на дельфина, существом, который не может найти дорогу к Большой Воде. Крошки-Ножки и его милые друзья приходят на помощь своему новому знакомому!


Перeвод:
Профессиональный (многоголосый закадровый)
Cубтитры: нет
Продoлжительность: 01:11:49
Качество: DVDRip
Формат: AVI
Видео: 640x480 (1.33:1), 25.000 fps, XviD MPEG-4, ~1 315 kbps avg, 0.17 bit/pixel
Аудио: 48.0 kHz, MPEG Layer 3, 2/0 (L,R) ch, ~128 kbps

МедиаИнфо:

Видео
Идентификатор : 0
Формат : MPEG-4 Visual
Профиль формата : Advanced Simple@L5
Параметр BVOP формата : 1
Параметр QPel формата : Нет
Параметр GMC формата : Без точки перехода
Параметр матрицы формата : Default (MPEG)
Идентификатор кодека : XVID
Идентификатор кодека/Подсказка : XviD
Продолжительность : 1 ч. 11 м.
Битрейт : 1315 Кбит/сек
Ширина : 640 пикселей
Высота : 480 пикселей
Соотношение сторон : 4:3
Частота кадров : 25,000 кадров/сек
Цветовое пространство : YUV
Субдискретизация насыщенности : 4:2:0
Битовая глубина : 8 бит
Тип развёртки : Прогрессивная
Метод сжатия : С потерями
Бит/(Пиксели*Кадры) : 0.171
Размер потока : 676 Мбайт (91%)
Библиотека кодирования : XviD 1.2.1 (UTC 2008-12-04)
Аудио
Идентификатор : 1
Формат : MPEG Audio
Версия формата : Version 1
Профиль формата : Layer 3
Идентификатор кодека : 55
Идентификатор кодека/Подсказка : MP3
Продолжительность : 1 ч. 11 м.
Вид битрейта : Постоянный
Битрейт : 128 Кбит/сек
Каналы : 2 канала
Частота : 48,0 КГц
Метод сжатия : С потерями
Размер потока : 65,8 Мбайт (9%)
Выравнивание : Соединение по промежуткам
Продолжительность промежутка : 40 мс. (1,00 видеокадр)
Время предзагрузки промежутка : 504 мс.
Библиотека кодирования : LAME3.98r
Настройки программы : -m s -V 4 -q 2 -lowpass 17 -b 128
Скриншоты:
Земля До Начала Времен 10: Великая Миграция / The Land Before Time X: The Great Longneck Migration (2003) DVDRip- Русское название: Земля До Начала Времен 10: Великая Миграция
Оригинальное название: The Land Before Time X: The Great Longneck Migration
Страна: США
Жанр: мультфильм, приключения, семейный
Год выпуска: 2003
Рeжиссёр: Чарльз Гросвенор / Charles Grosvenor
Роли озвучивали: Джон Ингл, Алек Медлок, Кеннет Марс, Мириам Флинн, Ария Ноэль Курзон, Джефф Беннетт, Роб Полсен, Энди МакЭфи, Брэндон Де Пол, Джеймс Гарнер
Описaние:
Нашего героя, неугомонного Крошки-Ножки, и компанию его друзей-динозавриков ждет невероятное путешествие, исполненное потрясающих сюрпризов и удивительных открытий.
Наши забавные озорники-приятели станут свидетелями многих чудес и, конечно же, самого большого сборища доисторических ящеров, где Крошки-Ножки ждет потрясающая встреча с одним особенным Длинношеем Динозавром, которого наш малыш совершенно не рассчитывал увидеть!

Перeвод: Профессиональный (дублированный)
Субтитры: нет
Прoдолжительность: 01:21:07
Качество: DVDRip
Формат: AVI
Видео: 640x480 (1.33:1), 25.000 fps, XviD, ~1 149 kbps avg, 0.15 bit/pixel
Аудио: 48.0 kHz, MPEG Layer 3, 2/0 (L,R) ch, ~128 kbps

МедиаИнфо:

Видео
Идентификатор : 0
Формат : MPEG-4 Visual
Профиль формата : Advanced Simple@L5
Параметр BVOP формата : 1
Параметр QPel формата : Нет
Параметр GMC формата : Без точки перехода
Параметр матрицы формата : Default (MPEG)
Идентификатор кодека : XVID
Идентификатор кодека/Подсказка : XviD
Продолжительность : 1 ч. 21 м.
Битрейт : 1149 Кбит/сек
Ширина : 640 пикселей
Высота : 480 пикселей
Соотношение сторон : 4:3
Частота кадров : 25,000 кадров/сек
Цветовое пространство : YUV
Субдискретизация насыщенности : 4:2:0
Битовая глубина : 8 бит
Тип развёртки : Прогрессивная
Метод сжатия : С потерями
Бит/(Пиксели*Кадры) : 0.150
Размер потока : 667 Мбайт (89%)
Библиотека кодирования : XviD 1.2.1 (UTC 2008-12-04)
Аудио
Идентификатор : 1
Формат : MPEG Audio
Версия формата : Version 1
Профиль формата : Layer 3
Идентификатор кодека : 55
Идентификатор кодека/Подсказка : MP3
Продолжительность : 1 ч. 21 м.
Вид битрейта : Постоянный
Битрейт : 128 Кбит/сек
Каналы : 2 канала
Частота : 48,0 КГц
Метод сжатия : С потерями
Размер потока : 74,3 Мбайт (10%)
Выравнивание : Соединение по промежуткам
Продолжительность промежутка : 40 мс. (1,00 видеокадр)
Время предзагрузки промежутка : 504 мс.
Библиотека кодирования : LAME3.98r
Настройки программы : -m s -V 4 -q 2 -lowpass 17 -b 128
Скриншоты:
Земля До Начала Времен 11: Вторжение Мышезавров / The Land Before Time XI: Invasion of the Tinysauruses (2005) DVDRip- Русское название: Земля До Начала Времен 11: Вторжение Мышезавров
Оригинальное название: The Land Before Time XI: Invasion of the Tinysauruses
Страна: США
Жанр: мультфильм, приключения, семейный
Год выпуска: 2005
Рeжиссёр: Чарльз Гросвенор / Charles Grosvenor
Роли озвучивали: Аарон Спанн, Джефф Беннетт, Ария Ноэль Курзон, Майкл Кларк Дункан, Мириам Флинн, Ника Футтерман, Джон Ингл, Ли Келли, Тресс МакНилл, Камрин Менхейм
Описaние:
На этот раз мышезавры захватывают Большую Долину, чтобы преподать Литлфуту большой урок о маленькой лжи. Познакомьтесь с новыми маленькими друзьями, послушайте новые песни.
"Вторжение Мышезавров" - фильм о героях, друзьях и семьях, которые бывают самыми разными - и по составу, и по размерам!

Перeвод: Профессиональный (дублированный)
Русские субтитры: нет
Прoдолжительность: 01:20:50
Качество: DVDRip
Формат: AVI
Видео: 640x480 (1.33:1), 23.976 fps, XviD, ~1 155 kbps avg, 0.16 bit/pixel
Аудио: 48.0 kHz, MPEG Layer 3, 2/0 (L,R) ch, ~128 kbps

МедиаИнфо:

Видео
Идентификатор : 0
Формат : MPEG-4 Visual
Профиль формата : Advanced Simple@L5
Параметр BVOP формата : 1
Параметр QPel формата : Нет
Параметр GMC формата : Без точки перехода
Параметр матрицы формата : Выборочная
Идентификатор кодека : XVID
Идентификатор кодека/Подсказка : XviD
Продолжительность : 1 ч. 20 м.
Битрейт : 1155 Кбит/сек
Ширина : 640 пикселей
Высота : 480 пикселей
Соотношение сторон : 4:3
Частота кадров : 23,976 кадра/сек
Цветовое пространство : YUV
Субдискретизация насыщенности : 4:2:0
Битовая глубина : 8 бит
Тип развёртки : Прогрессивная
Метод сжатия : С потерями
Бит/(Пиксели*Кадры) : 0.157
Размер потока : 668 Мбайт (89%)
Библиотека кодирования : XviD 63
Аудио
Идентификатор : 1
Формат : MPEG Audio
Версия формата : Version 1
Профиль формата : Layer 3
Режим : Joint stereo
Идентификатор кодека : 55
Идентификатор кодека/Подсказка : MP3
Продолжительность : 1 ч. 20 м.
Вид битрейта : Постоянный
Битрейт : 128 Кбит/сек
Каналы : 2 канала
Частота : 48,0 КГц
Метод сжатия : С потерями
Размер потока : 74,0 Мбайт (10%)
Выравнивание : Соединение по промежуткам
Продолжительность промежутка : 42 мс. (1,00 видеокадр)
Время предзагрузки промежутка : 504 мс.
Скриншоты:
Земля До Начала Времен 12: Великий День Птиц / The Land Before Time XII: The Great Day of the Flyers (2006) DVDRip- Русское название: Земля До Начала Времен 12: Великий День Птиц
Оригинальное название: The Land Before Time XII: The Great Day of the FlyerspicСтрана: pic США
Жанр: мультфильм, приключения, семейный
Год выпуска: 2006
Рeжиссёр: Чарльз Гросвенор / Charles Grosvenor
Роли озвучивали: Джон Ингл, Ник Прайс, Ария Ноэль Курзон, Роб Полсен, Камрин Менхейм, Энди МакЭфи, Джефф Беннетт, Ника Футтерман, Сьюзэн Блу, Тресс МакНилл
Описaние:
Веселье начинает свой полет в компании наших доисторических друзей Литлфута, Черы, Петры, Спайка и Даки в новом парящем приключении! «Великий День Птиц» — важное событие в жизни всех летающих Великой Долины — совсем скоро наступит, но независимый свободный стиль Петры не позволяет герою вписаться в стаю своих близких. Друзья стараются помочь ему, но новичок по имени Гуйдо дает самый полезный совет — иногда лучше оставаться «самим собой». Никто никогда не видел такого как Гуйдо, и когда команда пытается выяснить, к какому виду динозавров он принадлежит, они неожиданно оказываются вовлечены в волнующее таинственное путешествие.


Перeвод:
Профессиональный (дублированный)
Cубтитры: нет
Прoдoлжительность: 01:17:05
Качество: DVDRip
Формат: AVI
Видео: 688x384 (1.79:1), 25.000 fps, XviD, ~1 217 kbps avg, 0.18 bit/pixel
Аудио: 48.0 kHz, MPEG Layer 3, 2/0 (L,R) ch, ~128 kbps

МедиаИнфо:

Видео
Идентификатор : 0
Формат : MPEG-4 Visual
Профиль формата : Advanced Simple@L5
Параметр BVOP формата : 1
Параметр QPel формата : Нет
Параметр GMC формата : Без точки перехода
Параметр матрицы формата : Default (MPEG)
Идентификатор кодека : XVID
Идентификатор кодека/Подсказка : XviD
Продолжительность : 1 ч. 17 м.
Битрейт : 1217 Кбит/сек
Ширина : 688 пикселей
Высота : 384 пикселя
Соотношение сторон : 16:9
Частота кадров : 25,000 кадров/сек
Цветовое пространство : YUV
Субдискретизация насыщенности : 4:2:0
Битовая глубина : 8 бит
Тип развёртки : Прогрессивная
Метод сжатия : С потерями
Бит/(Пиксели*Кадры) : 0.184
Размер потока : 671 Мбайт (90%)
Библиотека кодирования : XviD 1.2.1 (UTC 2008-12-04)
Аудио
Идентификатор : 1
Формат : MPEG Audio
Версия формата : Version 1
Профиль формата : Layer 3
Идентификатор кодека : 55
Идентификатор кодека/Подсказка : MP3
Продолжительность : 1 ч. 17 м.
Вид битрейта : Постоянный
Битрейт : 128 Кбит/сек
Каналы : 2 канала
Частота : 48,0 КГц
Метод сжатия : С потерями
Размер потока : 70,6 Мбайт (9%)
Выравнивание : Соединение по промежуткам
Продолжительность промежутка : 40 мс. (1,00 видеокадр)
Время предзагрузки промежутка : 504 мс.
Библиотека кодирования : LAME3.98r
Настройки программы : -m s -V 4 -q 2 -lowpass 17 -b 128
Скриншоты:
Земля До Начала Времен 13: Сила Дружбы / The Land Before Time XIII: The wisdom of friends (2007) DVDRip- Русское название: Земля До Начала Времен 13: Сила Дружбы
Оригинальное название: The Land Before Time XIII: The wisdom of friends
Страна: США
Жанр: мультфильм, приключения, семейный
Год выпуска: 2007
Рeжиссёр: Джэми Митчел, Чарльз Гросвенор / Jamie Mitchell, Charles Grosvenor
Роли озвучивали: Коуди Аренс, Логан Аренс, Энди МакЭфи, Ария Ноэль Курзон, Джефф Беннетт, Роб Полсен, Кьюба Гудинг мл., Сандра О, Мириам Флинн, Джессика Ги
Описaние:
Литлфут, Чера, Спайк, Петри и Паки очень рады встретить двух симпатичных и дурашливых байпиозавров Луфа и Дуфа, которые потерялись по дороге к далекой Долине Ягод. Луфа и Дуфа кажутся слишком глупенькими чтобы самостоятельно найти дорогу назад, поэтому Литлфут и его друзья решают помочь ребятам, делясь с ними важными уроками жизни, в том числе секретом о силе дружбы. Когда они находят Долину Ягод, Литлфут понимает что несмотря на то, что их новые друзья не осознают всех преподнесенных уроков, они забавные и отличные ребята.pic pic

Перeвод: Профессиональный (дублированный)
Cубтитры: нет
Продoлжительность: 01:12:27
Качество: DVDRip
Формат: AVI
Видео: 688x384 (1.79:1), 25.000 fps, XviD, ~1 302 kbps avg, 0.20 bit/pixel
Аудио: 48.0 kHz, MPEG Layer 3, 2/0 (L,R) ch, ~128 kbps

МедиаИнфо:

Видео
Идентификатор : 0
Формат : MPEG-4 Visual
Профиль формата : Advanced Simple@L5
Параметр BVOP формата : 1
Параметр QPel формата : Нет
Параметр GMC формата : Без точки перехода
Параметр матрицы формата : Default (MPEG)
Идентификатор кодека : XVID
Идентификатор кодека/Подсказка : XviD
Продолжительность : 1 ч. 12 м.
Битрейт : 1302 Кбит/сек
Ширина : 688 пикселей
Высота : 384 пикселя
Соотношение сторон : 16:9
Частота кадров : 25,000 кадров/сек
Цветовое пространство : YUV
Субдискретизация насыщенности : 4:2:0
Битовая глубина : 8 бит
Тип развёртки : Прогрессивная
Метод сжатия : С потерями
Бит/(Пиксели*Кадры) : 0.197
Размер потока : 675 Мбайт (90%)
Библиотека кодирования : XviD 1.2.1 (UTC 2008-12-04)
Аудио
Идентификатор : 1
Формат : MPEG Audio
Версия формата : Version 1
Профиль формата : Layer 3
Режим : Joint stereo
Расширение режима : MS Stereo
Идентификатор кодека : 55
Идентификатор кодека/Подсказка : MP3
Продолжительность : 1 ч. 12 м.
Вид битрейта : Постоянный
Битрейт : 128 Кбит/сек
Каналы : 2 канала
Частота : 48,0 КГц
Метод сжатия : С потерями
Размер потока : 66,3 Мбайт (9%)
Выравнивание : Соединение по промежуткам
Продолжительность промежутка : 40 мс. (1,00 видеокадр)
Время предзагрузки промежутка : 504 мс.
Скриншоты:
Скриншоты:

Время раздачи: с 11:00 до 01:00

[Цитировать]



Показать сообщения:    

Текущее время: 09-Дек 12:44

Часовой пояс: UTC + 3


Вы не можете начинать темы
Вы не можете отвечать на сообщения
Вы не можете редактировать свои сообщения
Вы не можете удалять свои сообщения
Вы не можете голосовать в опросах
Вы не можете прикреплять файлы к сообщениям
Вы не можете скачивать файлы

!ВНИМАНИЕ!
Сайт не предоставляет электронные версии произведений, а занимается лишь коллекционированием и каталогизацией ссылок, присылаемых и публикуемых на форуме нашими читателями. Если вы являетесь правообладателем какого-либо представленного материала и не желаете, чтобы ссылка на него находилась в нашем каталоге, свяжитесь с нами, и мы незамедлительно удалим ее. Файлы для обмена на трекере предоставлены пользователями сайта, и администрация не несет ответственности за их содержание. Просьба не заливать файлы, защищенные авторскими правами, а также файлы нелегального содержания!