[ Сегодня идет свободное скачивание без начисления Download ]


Статистика раздачи
Нет
 
   
 
Top  
 
 
-Заколдованная гора / The enchanted mountain (2008) DVDRip- Русское название: Заколдованная гора
Оригинальное название: The enchanted mountain
Год выпуска: 2008
Страна: КНДР
Жанр: Детский, Рисованная анимация, Сказка
Перевод: Дублированный
Озвучка / Автор перевода: "KidsCo"
Вид субтитров: Отсутствуют
Режиссер: Ким Чжун Ок, Ким Кён Хо, Ким Рён Хёк и Ким Ин Сон
Описание фильма:
По мотивам корейской народной сказки. В заповедных Кымганских горах юноша Мадал спасает раненого оленя. Узнав, что его спаситель не женат, олень открывает ему тайну: в полнолуние прекрасные феи Небесного королевства спускаются искупаться в горных озёрах...
Продолжительность: 01:43:35
Качество видео: DVDRip
Видео: MPEG4, XviD, 608x320 (1.900), 25.000 fps, 807 Kbps (0.166 bit/pixel)
Аудио: MP3, 48.0 KHz, 2 ch, 128 Kbps, CBR

МедиаИнфо:

Видео
Идентификатор : 0
Формат : MPEG-4 Visual
Профиль формата : Advanced Simple@L5
Параметр BVOP формата : 2
Параметр QPel формата : Нет
Параметр GMC формата : Без точки перехода
Параметр матрицы формата : Default (H.263)
Режим смешивания : Сжатый битовый поток
Идентификатор кодека : XVID
Идентификатор кодека/Подсказка : XviD
Продолжительность : 1 ч. 43 м.
Битрейт : 807 Кбит/сек
Ширина : 608 пикселей
Высота : 320 пикселей
Соотношение сторон : 1,900
Частота кадров : 25,000 кадров/сек
Цветовое пространство : YUV
Субдискретизация насыщенности : 4:2:0
Битовая глубина : 8 бит
Тип развёртки : Прогрессивная
Метод сжатия : С потерями
Бит/(Пиксели*Кадры) : 0.166
Размер потока : 598 Мбайт (85%)
Библиотека кодирования : XviD 1.1.2 (UTC 2006-11-01)
Аудио
Идентификатор : 1
Формат : MPEG Audio
Версия формата : Version 1
Профиль формата : Layer 3
Идентификатор кодека : 55
Идентификатор кодека/Подсказка : MP3
Продолжительность : 1 ч. 43 м.
Вид битрейта : Постоянный
Битрейт : 128 Кбит/сек
Каналы : 2 канала
Частота : 48,0 КГц
Метод сжатия : С потерями
Размер потока : 94,8 Мбайт (14%)
Выравнивание : Разделение по промежуткам
Продолжительность промежутка : 40 мс. (1,00 видеокадр)
Время предзагрузки промежутка : 500 мс.

Дополнительная информация:

Рип сделан братьями-славянами с чешского DVD (в Чехии фильм издан под названием "V?la z nebesk?ho kr?lovstv?" - Фея из небесного королевства). Русскую озвучку записал Василий Задов, за что ему большое спасибо. Синхронизация звука Mehanik_kv
Скриншоты:

Время раздачи: с 11:00 до 01:00

[Цитировать]



Показать сообщения:    

Текущее время: 09-Дек 22:27

Часовой пояс: UTC + 3


Вы не можете начинать темы
Вы не можете отвечать на сообщения
Вы не можете редактировать свои сообщения
Вы не можете удалять свои сообщения
Вы не можете голосовать в опросах
Вы не можете прикреплять файлы к сообщениям
Вы не можете скачивать файлы

!ВНИМАНИЕ!
Сайт не предоставляет электронные версии произведений, а занимается лишь коллекционированием и каталогизацией ссылок, присылаемых и публикуемых на форуме нашими читателями. Если вы являетесь правообладателем какого-либо представленного материала и не желаете, чтобы ссылка на него находилась в нашем каталоге, свяжитесь с нами, и мы незамедлительно удалим ее. Файлы для обмена на трекере предоставлены пользователями сайта, и администрация не несет ответственности за их содержание. Просьба не заливать файлы, защищенные авторскими правами, а также файлы нелегального содержания!