[ Сегодня идет свободное скачивание без начисления Download ]


Статистика раздачи
Нет
 
   
 
Top  
 
 
-Монстры на каникулах / Hotel Transylvania (2012) BDRip- Русское название: Монстры на каникулах
Оригинальное название: Hotel Transylvania
Год выпуска: 2012
Производство: США | Columbia Pictures, Sony Pictures Animation
Жанр: Mультфильм, Kомедия, Cемейный
Перевод: Дублированный [Лицензия]
Субтитры: Вшитые отключаемые
Субтитры: Русские, Английские
Дата мировой премьеры: 8 сентября 2012
Дата российской премьеры: 18 октября 2012, «WDSSPR»
Дата выхода DVD релиза: 29 января 2013, «Columbia/Sony»
Дата выхода Blu-Ray релиза: 29 января 2013, «Columbia/Sony»
Режиссер: Генндий Тартаковский
Продюсер: Мишель Мурдокка, Лидия Боттегони, Адам Сэндлер
Актеры: Адам Сэндлер, Энди Сэмберг, Селена Гомес, Кевин Джеймс, Фрэн Дрешер, Стив Бушеми, Молли Шеннон, Дэвид Спейд, Си-Ло, Джон Ловиц
Описание фильма:
Граф Дракула для себя и своей любимой дочки построил хорошо укрытый от посторонних глаз отель, куда монстры со всего света приезжают отдохнуть от семейных забот, повседневной суеты и, конечно… людей. Но вездесущие американские туристы проникают и сюда.-[imdb]tt0837562[/imdb] [kp]280174[/kp] -Продолжительность: 01:31:31
Качество видео: BDRip 720р
Видеокодек: MPEG-4 AVC/H.264
Битрейт видео: 5659 Кbps
Размер кадра: 1280x692 (1,85:1)
Аудио #1: Русский, AC3, 640 Kbps, 48KHz, 6ch - Дубляж | BD CEE
Аудио #2: Украинский, AC3, 640 Kbps, 48KHz, 6ch - Дубляж | BD CEE
Аудио #3: English, DTS, 1510 Kbps, 48KHz, 6ch - Original

MediaInfo:

Общее
Уникальный идентификатор                 : 210774832189879794069416528084618343356 (0x9E91C18EB4B26235B78549C5BBDA73BC)
Полное имя                               : E:\Загрузка\Hotel.Transylvania.2012.720p.BluRay.DTS.x264.mkv
Формат                                   : Matroska
Версия формата                           : Version 2
Размер файла                             : 5,51 Гбайт
Продолжительность                        : 1 ч. 31 м.
Общий поток                              : 8619 Кбит/сек
Название фильма                          : -=(стерилизуемый трекер).ORG=-
Дата кодирования                         : UTC 2013-01-26 12:29:50
Программа кодирования                    : mkvmerge v5.2.0 ('I can't explain') built on Dec 18 2011 18:12:03
Библиотека кодирования                   : libebml v1.2.3 + libmatroska v1.3.0
Видео
Идентификатор                            : 1
Формат                                   : AVC
Формат/Информация                        : Advanced Video Codec
Профиль формата                          : [url=mailto:High@L4.1]High@L4.1[/url]
Параметр CABAC формата                   : Да
Параметр ReFrames формата                : 9 кадров
Идентификатор кодека                     : V_MPEG4/ISO/AVC
Продолжительность                        : 1 ч. 31 м.
Битрейт                                  : 5658 Кбит/сек
Ширина                                   : 1280 пикселей
Высота                                   : 692 пикселя
Соотношение сторон                       : 1,85:1
Частота кадров                           : 23,976 кадра/сек
Цветовое пространство                    : YUV
Субдискретизация насыщенности            : 4:2:0
Битовая глубина                          : 8 бит
Тип развёртки                            : Прогрессивная
Бит/(Пиксели*Кадры)                      : 0.266
Размер потока                            : 3,62 Гбайт (66%)
Заголовок                                : HiDt
Библиотека кодирования                   : x264 core 120 r2164 da19765
Настройки программы                      : cabac=1 / ref=9 / deblock=1:-1:-1 / analyse=0x3:0x113 / me=tesa / subme=11 / psy=1 / psy_rd=0.90:0.00 / mixed_ref=1 / me_range=48 / chroma_me=1 / trellis=2 / 8x8dct=1 / cqm=0 / deadzone=21,11 / fast_pskip=0 / chroma_qp_offset=-2 / threads=12 / sliced_threads=0 / nr=0 / decimate=1 / interlaced=0 / bluray_compat=0 / constrained_intra=0 / bframes=8 / b_pyramid=2 / b_adapt=2 / b_bias=0 / direct=3 / weightb=1 / open_gop=0 / weightp=2 / keyint=250 / keyint_min=25 / scenecut=40 / intra_refresh=0 / rc=crf / mbtree=0 / crf=14.3 / qcomp=0.72 / qpmin=0 / qpmax=69 / qpstep=4 / ip_ratio=1.40 / pb_ratio=1.30 / aq=1:0.60
Язык                                     : English
Default                                  : Да
Forced                                   : Нет
Аудио #1
Идентификатор                            : 2
Формат                                   : AC-3
Формат/Информация                        : Audio Coding 3
Расширение режима                        : CM (complete main)
Параметр Endianness формата              : Big
Идентификатор кодека                     : A_AC3
Продолжительность                        : 1 ч. 31 м.
Вид битрейта                             : Постоянный
Битрейт                                  : 640 Кбит/сек
Каналы                                   : 6 каналов
Расположение каналов                     : Front: L C R, Side: L R, LFE
Частота                                  : 48,0 КГц
Битовая глубина                          : 16 бит
Метод сжатия                             : С потерями
Размер потока                            : 419 Мбайт (7%)
Заголовок                                : AC3 / 5.1 ch / 640 kbps / Русский дубляж BD CEE
Язык                                     : Russian
Default                                  : Да
Forced                                   : Нет
Аудио #2
Идентификатор                            : 3
Формат                                   : AC-3
Формат/Информация                        : Audio Coding 3
Расширение режима                        : CM (complete main)
Параметр Endianness формата              : Big
Идентификатор кодека                     : A_AC3
Продолжительность                        : 1 ч. 31 м.
Вид битрейта                             : Постоянный
Битрейт                                  : 640 Кбит/сек
Каналы                                   : 6 каналов
Расположение каналов                     : Front: L C R, Side: L R, LFE
Частота                                  : 48,0 КГц
Битовая глубина                          : 16 бит
Метод сжатия                             : С потерями
Размер потока                            : 419 Мбайт (7%)
Заголовок                                : AC3 / 5.1 ch / 640 kbps / Украинский дубляж BD CEE
Язык                                     : Ukrainian
Default                                  : Нет
Forced                                   : Нет
Аудио #3
Идентификатор                            : 4
Формат                                   : DTS
Формат/Информация                        : Digital Theater Systems
Идентификатор кодека                     : A_DTS
Продолжительность                        : 1 ч. 31 м.
Вид битрейта                             : Постоянный
Битрейт                                  : 1510 Кбит/сек
Каналы                                   : 6 каналов
Расположение каналов                     : Front: L C R, Side: L R, LFE
Частота                                  : 48,0 КГц
Битовая глубина                          : 24 бит
Метод сжатия                             : С потерями
Задержка видео                           : 11 мс.
Размер потока                            : 988 Мбайт (18%)
Заголовок                                : DTS.1510.Kbps (6ch) English
Язык                                     : English
Default                                  : Нет
Forced                                   : Нет
Текст #1
Идентификатор                            : 5
Формат                                   : UTF-8
Идентификатор кодека                     : S_TEXT/UTF8
Идентификатор кодека/Информация          : UTF-8 Plain Text
Заголовок                                : Full BD
Язык                                     : Russian
Default                                  : Нет
Forced                                   : Нет
Текст #2
Идентификатор                            : 6
Формат                                   : UTF-8
Идентификатор кодека                     : S_TEXT/UTF8
Идентификатор кодека/Информация          : UTF-8 Plain Text
Заголовок                                : Full BD
Язык                                     : English
Default                                  : Нет
Forced                                   : Нет
Меню
00:00:00.000                             : en:00:00:00.000
00:04:49.372                             : en:00:04:49.372
00:10:23.790                             : en:00:10:23.790
00:14:19.275                             : en:00:14:19.275
00:19:25.498                             : en:00:19:25.498
00:25:11.218                             : en:00:25:11.218
00:29:49.413                             : en:00:29:49.413
00:35:50.815                             : en:00:35:50.815
00:41:11.636                             : en:00:41:11.636
00:46:29.537                             : en:00:46:29.537
00:53:50.227                             : en:00:53:50.227
00:57:44.795                             : en:00:57:44.795
01:04:15.268                             : en:01:04:15.268
01:08:48.499                             : en:01:08:48.499
01:15:20.599                             : en:01:15:20.599
01:18:50.643                             : en:01:18:50.643
Скриншоты:

[Цитировать]



Показать сообщения:    

Текущее время: 08-Дек 07:09

Часовой пояс: UTC + 3


Вы не можете начинать темы
Вы не можете отвечать на сообщения
Вы не можете редактировать свои сообщения
Вы не можете удалять свои сообщения
Вы не можете голосовать в опросах
Вы не можете прикреплять файлы к сообщениям
Вы не можете скачивать файлы

!ВНИМАНИЕ!
Сайт не предоставляет электронные версии произведений, а занимается лишь коллекционированием и каталогизацией ссылок, присылаемых и публикуемых на форуме нашими читателями. Если вы являетесь правообладателем какого-либо представленного материала и не желаете, чтобы ссылка на него находилась в нашем каталоге, свяжитесь с нами, и мы незамедлительно удалим ее. Файлы для обмена на трекере предоставлены пользователями сайта, и администрация не несет ответственности за их содержание. Просьба не заливать файлы, защищенные авторскими правами, а также файлы нелегального содержания!