[ Сегодня идет свободное скачивание без начисления Download ]


Статистика раздачи
Нет
 
   
 
Top  
 
 
Любовь С Препятствиями / Un Bonheur N'arrive Jamais Seul Год выпуска: 2012
Страна: Франция
Производство: Captain Movies, Eskwad, SPAD Films
Жанр: Мелодрама, комедия
Режиссер: Джеймс Хат
В ролях: Софи Марсо, Гад Эльмалех, Морис Бартелеми, Франсуа Берлеан, Майкл Абитебул, Джули-Энн Рот, Маша Мериль, Франсуа Винчентелли.
Перевод: Дубляж
Субтитры: Отсутствуют
Описание: Саша живет беззаботной и легкомысленной жизнью в окружении красивых девушек, друзей и музыки. Шарлота уже дважды успела побывать замужем и больше не собирается повторять своих ошибок. Хотя, как знать. Может, у судьбы свои планы?
[kp]585641[/kp] [imdb]tt1872880[/imdb]
Качество: BDRip-AVC
Продолжительность: 01:49:19 часа.
Формат: AVI
Видео кодек: x264
Аудио кодек: AC3
Видео: 832x468 (16:9), 23.976 fps, x264 ~2 409 kbps avg, 0.258 bit/pixel
Аудио: 48 kHz, AC3 Dolby Digital, 3/2 (L,C,R,l,r) + LFE ch, ~448 kbps
Премьера (мир): 13 октября 2011, ...
Премьера (РФ): 16 августа 2012, «Каскад»

Media Info

Общее
Уникальный идентификатор                 : 182637461335762676963660145874724919800 (0x8966B21139BE1446BEE04A97889719F8)
Полное имя                               : D:\Un bonheur n'arrive jamais seul 2012 x264 BDRip-AVC.mkv
Формат                                   : Matroska
Версия формата                           : Version 2
Размер файла                             : 2,18 Гбайт
Продолжительность                        : 1 ч. 49 м.
Общий поток                              : 2858 Кбит/сек
Дата кодирования                         : UTC 2012-10-15 04:21:20
Программа кодирования                    : mkvmerge v5.6.0 ('Kenya Kane') built on May 27 2012 16:44:04
Библиотека кодирования                   : libebml v1.2.3 + libmatroska v1.3.0
Видео
Идентификатор                            : 1
Формат                                   : AVC
Формат/Информация                        : Advanced Video Codec
Профиль формата                          : [email protected]
Параметр CABAC формата                   : Да
Параметр ReFrames формата                : 12 кадров
Идентификатор кодека                     : V_MPEG4/ISO/AVC
Продолжительность                        : 1 ч. 49 м.
Битрейт                                  : 2409 Кбит/сек
Ширина                                   : 832 пикселя
Высота                                   : 468 пикселей
Соотношение сторон                       : 16:9
Режим частоты кадров                     : Постоянный
Частота кадров                           : 23,976 кадра/сек
Цветовое пространство                    : YUV
Субдискретизация насыщенности            : 4:2:0
Битовая глубина                          : 8 бит
Тип развёртки                            : Прогрессивная
Бит/(Пиксели*Кадры)                      : 0.258
Размер потока                            : 1,80 Гбайт (82%)
Заголовок                                : Un bonheur n'arrive jamais seul 2012 x264 BDRip-AVC Gambit
Библиотека кодирования                   : x264 core 125 r2208kMod d9d2288
Настройки программы                      : cabac=1 / ref=12 / deblock=1:-2:-1 / analyse=0x3:0x133 / me=umh / subme=11 / psy=1 / fade_compensate=0.00 / psy_rd=1.08:0.02 / mixed_ref=1 / me_range=40 / chroma_me=1 / trellis=2 / 8x8dct=1 / cqm=0 / deadzone=21,11 / fast_pskip=0 / chroma_qp_offset=-3 / threads=6 / lookahead_threads=1 / sliced_threads=0 / nr=0 / decimate=0 / interlaced=0 / bluray_compat=0 / constrained_intra=0 / bframes=10 / b_pyramid=2 / b_adapt=2 / b_bias=0 / direct=3 / weightb=1 / open_gop=0 / weightp=2 / keyint=250 / keyint_min=23 / scenecut=40 / intra_refresh=0 / rc=2pass / mbtree=0 / bitrate=2409 / ratetol=1.0 / qcomp=0.65 / qpmin=0 / qpmax=69 / qpstep=4 / cplxblur=20.0 / qblur=0.5 / ip_ratio=1.25 / pb_ratio=1.35 / aq=3:0.90 / zones=151338,157269,q=35
Язык                                     : English
Default                                  : Да
Forced                                   : Нет
Коэффициенты матрицы                     : BT.709
Аудио
Идентификатор                            : 2
Формат                                   : AC-3
Формат/Информация                        : Audio Coding 3
Расширение режима                        : CM (complete main)
Параметр Endianness формата              : Big
Идентификатор кодека                     : A_AC3
Продолжительность                        : 1 ч. 49 м.
Вид битрейта                             : Постоянный
Битрейт                                  : 448 Кбит/сек
Каналы                                   : 6 каналов
Расположение каналов                     : Front: L C R, Side: L R, LFE
Частота                                  : 48,0 КГц
Битовая глубина                          : 16 бит
Метод сжатия                             : С потерями
Размер потока                            : 350 Мбайт (16%)
Заголовок                                : Dub
Язык                                     : Russian
Default                                  : Да
Forced                                   : Нет

Скриншоты



[Цитировать]



Показать сообщения:    

Текущее время: 06-Дек 11:17

Часовой пояс: UTC + 3


Вы не можете начинать темы
Вы не можете отвечать на сообщения
Вы не можете редактировать свои сообщения
Вы не можете удалять свои сообщения
Вы не можете голосовать в опросах
Вы не можете прикреплять файлы к сообщениям
Вы не можете скачивать файлы

!ВНИМАНИЕ!
Сайт не предоставляет электронные версии произведений, а занимается лишь коллекционированием и каталогизацией ссылок, присылаемых и публикуемых на форуме нашими читателями. Если вы являетесь правообладателем какого-либо представленного материала и не желаете, чтобы ссылка на него находилась в нашем каталоге, свяжитесь с нами, и мы незамедлительно удалим ее. Файлы для обмена на трекере предоставлены пользователями сайта, и администрация не несет ответственности за их содержание. Просьба не заливать файлы, защищенные авторскими правами, а также файлы нелегального содержания!