[ Сегодня идет свободное скачивание без начисления Download ]


Статистика раздачи
Нет
 
   
 
 
 
-Зной Явы / Java Heat - Русское название: Зной Явы
Оригинальное название: Java Heat
Год выпуска: 2013
Производство: США / Margate House Films
Жанр: Боевик, Триллер, Драма, Криминал
Перевод: Одноголосый закадровый, любительский [den904]
Субтитры: Отсутствуют
Дата мировой премьеры: 11 апреля 2013
Дата российской премьеры: Неизвестно
Дата выхода DVD релиза: Неизвестно
Режиссер: Конор Эллин
Актеры: Келлан Латс, Микки Рурк, Арио Баю, Тио Пакусодево, Атика Хасихолан, Верди Солайман, Рахайу Сарасвати, Майкл Дункан, Агунг Удиджана, Рио Деванто
Описание фильма:
В картине речь идет о молодом американце по имени Джейк, который приезжает в Юго-Восточную Азию, чтобы сражаться с исламскими террористами. В компании с местным детективом-мусульманином он преследует изобретательного вора, который специально организовывает взрывы и похищения, чтобы осуществлять кражи драгоценностей, произведений искусства, а также маленьких мальчиков и даже одной принцессы.

Продолжительность: 01:43:46
Качество видео: BDRip-Видеокодек: MPEG-4 AVC/H.264
Битрейт видео: ~8581 kbps
Размер кадра: 1920 x 816
Аудиокодек: AC3 5.1 / DTS
Аудио 1: Русский, AC3 5.1, 448 kbps, 48 kHz
Аудио 2: Английский, DTS 5.1, 768 kbps, 48 kHz-Сэмпл: Скачать-

MediaInfo:

Общее
Уникальный идентификатор : 187586879831423248369568378397706403600 (0x8D1FEB3D4D6BE01AAB045907FE6FBF10)
Полное имя : D:\Films\Java.Heat.2013.1080p.BDRip.mkv
Формат : Matroska
Версия формата : Version 2
Размер файла : 7,25 Гбайт
Продолжительность : 1 ч. 43 м.
Общий поток : 9996 Кбит/сек
Дата кодирования : UTC 2013-03-15 22:23:56
Программа кодирования : mkvmerge v5.2.0 ('I can't explain') built on Dec 18 2011 18:12:03
Библиотека кодирования : libebml v1.2.3 + libmatroska v1.3.0
Видео
Идентификатор : 1
Формат : AVC
Формат/Информация : Advanced Video Codec
Профиль формата : [email protected]
Параметр CABAC формата : Да
Параметр ReFrames формата : 5 кадров
Идентификатор кодека : V_MPEG4/ISO/AVC
Продолжительность : 1 ч. 43 м.
Битрейт : 8581 Кбит/сек
Ширина : 1920 пикселей
Высота : 816 пикселей
Соотношение сторон : 2,35:1
Режим частоты кадров : Постоянный
Частота кадров : 23,976 кадра/сек
Цветовое пространство : YUV
Субдискретизация насыщенности : 4:2:0
Битовая глубина : 8 бит
Тип развёртки : Прогрессивная
Бит/(Пиксели*Кадры) : 0.228
Размер потока : 6,22 Гбайт (86%)
Библиотека кодирования : x264 core 130 r2273 b3065e6
Настройки программы : cabac=1 / ref=5 / deblock=1:0:0 / analyse=0x3:0x113 / me=umh / subme=7 / psy=1 / psy_rd=1.00:0.00 / mixed_ref=1 / me_range=16 / chroma_me=1 / trellis=1 / 8x8dct=1 / cqm=0 / deadzone=21,11 / fast_pskip=0 / chroma_qp_offset=-2 / threads=18 / lookahead_threads=3 / sliced_threads=0 / nr=0 / decimate=1 / interlaced=0 / bluray_compat=0 / constrained_intra=0 / bframes=3 / b_pyramid=2 / b_adapt=1 / b_bias=0 / direct=1 / weightb=1 / open_gop=0 / weightp=2 / keyint=250 / keyint_min=23 / scenecut=40 / intra_refresh=0 / rc_lookahead=40 / rc=crf / mbtree=1 / crf=20.0 / qcomp=0.60 / qpmin=0 / qpmax=69 / qpstep=4 / ip_ratio=1.40 / aq=1:1.00
Язык : English
Default : Да
Forced : Нет
Аудио #1
Идентификатор : 2
Формат : AC-3
Формат/Информация : Audio Coding 3
Расширение режима : CM (complete main)
Параметр Endianness формата : Big
Идентификатор кодека : A_AC3
Продолжительность : 1 ч. 43 м.
Вид битрейта : Постоянный
Битрейт : 448 Кбит/сек
Каналы : 6 каналов
Расположение каналов : Front: L C R, Side: L R, LFE
Частота : 48,0 КГц
Битовая глубина : 16 бит
Метод сжатия : С потерями
Размер потока : 333 Мбайт (4%)
Заголовок : VO den904
Язык : Russian
Default : Да
Forced : Нет
Аудио #2
Идентификатор : 3
Формат : DTS
Формат/Информация : Digital Theater Systems
Режим : 16
Параметр Endianness формата : Big
Идентификатор кодека : A_DTS
Продолжительность : 1 ч. 43 м.
Вид битрейта : Постоянный
Битрейт : 768 Кбит/сек
Каналы : 6 каналов
Расположение каналов : Front: L C R, Side: L R, LFE
Частота : 48,0 КГц
Битовая глубина : 16 бит
Метод сжатия : С потерями
Размер потока : 570 Мбайт (8%)
Язык : English
Default : Нет
Forced : Нет
-Скриншоты:
-

[Цитировать]



Показать сообщения:    

Текущее время: 04-Дек 23:27

Часовой пояс: UTC + 3


Вы не можете начинать темы
Вы не можете отвечать на сообщения
Вы не можете редактировать свои сообщения
Вы не можете удалять свои сообщения
Вы не можете голосовать в опросах
Вы не можете прикреплять файлы к сообщениям
Вы не можете скачивать файлы

!ВНИМАНИЕ!
Сайт не предоставляет электронные версии произведений, а занимается лишь коллекционированием и каталогизацией ссылок, присылаемых и публикуемых на форуме нашими читателями. Если вы являетесь правообладателем какого-либо представленного материала и не желаете, чтобы ссылка на него находилась в нашем каталоге, свяжитесь с нами, и мы незамедлительно удалим ее. Файлы для обмена на трекере предоставлены пользователями сайта, и администрация не несет ответственности за их содержание. Просьба не заливать файлы, защищенные авторскими правами, а также файлы нелегального содержания!