[ Сегодня идет свободное скачивание без начисления Download ]


Статистика раздачи
Нет
 
   
 
Top  
 
 
Клещи / Infested / Ticks -Год выпуска: 1993
Страна: США
Жанр: ужасы
Продолжительность: 01:25:43
Перевод1: Профессиональный (многоголосый закадровый)(ТВ3)
Перевод2: Авторский (одноголосый, закадровый)(Ю.Живов)
Субтитры: отсутствуют
Оригинальная аудиодорожка: английский-Режиссер: Тони Рэндел / Tony Randel
В ролях: Джеффри Комбс, Барбара Крэмптон, Кен Фори, Тед Сорел, Кэролин Перди-Гордон, Банни Саммерс, Брюс МакГуайр, Дел Рассел, Дэйл Виатт
-Описание: Двое специалистов по вопросам психологии привозят группу молодых людей в лес, чтобы помочь им справиться со своимипроблемами. Недалеко от места, где они рас-положились, незаконно выращивали марихуану. Чтобы она быстрее росла, над ее посевами распыляли анаболики. Обычные лесные клещи попали под действие этих препаратов и стали с большой скоростью увеличиваться в размерах. Затем клещи начали нападать на приехавших в лес людей. Тело погибшего спортсмена, принимающего при жизни анаболики, на глазах у всех превращается в гигантского клеща. Надо уезжать, но поздно: лес охвачен пожаром, клещи наступают…-Качество: BDRemux 1080p
Формат: MKV
Видео кодек: H.264
Аудио кодек: AC3, DTS-HD MA
Видео: 1980 x 1080; 23,976 fps; 23,5 Mbps
Аудио1: Русский, AC3 2.0 192 Kbps 48,0 КГц(MVO)
Аудио2: Русский, AC3 2.0 192 Kbps 48,0 КГц(Живов)
Аудио3: English, DTS-HD MA 1585 kbps / 2.0 / 48 kHz / 16-bit (DTS Core: 2.0 / 48 kHz / 1509 kbps / 16-bit)(Original)

MediaInfo

Общее
Уникальный идентификатор : 202114641037357558799699233809746786799 (0x980DDD2AFE90BAF7A2BB4241FBC279EF)
Полное имя : D:\HDFILMS\Ticks.1993.BDREMUX.1080p.mkv
Формат : Matroska
Версия формата : Version 2
Размер файла : 15,5 Гбайт
Продолжительность : 1 ч. 25 м.
Режим общего битрейта : Переменный
Общий поток : 26,0 Мбит/сек
Название фильма : Ticks
Дата кодирования : UTC 2013-03-16 06:02:19
Программа кодирования : mkvmerge v5.3.0 ('I could have danced') built on Feb 9 2012 10:38:07
Библиотека кодирования : libebml v1.2.3 + libmatroska v1.3.0
Видео
Идентификатор : 1
Формат : AVC
Формат/Информация : Advanced Video Codec
Профиль формата : High@L4.1
Параметр CABAC формата : Да
Параметр ReFrames формата : 4 кадра
Параметр GOP формата : M=3, N=24
Идентификатор кодека : V_MPEG4/ISO/AVC
Продолжительность : 1 ч. 25 м.
Вид битрейта : Переменный
Максимальный битрейт : 32,0 Мбит/сек
Ширина : 1920 пикселей
Высота : 1080 пикселей
Соотношение сторон : 16:9
Режим частоты кадров : Постоянный
Частота кадров : 23,976 кадра/сек
Стандарт вещания : NTSC
Цветовое пространство : YUV
Субдискретизация насыщенности : 4:2:0
Битовая глубина : 8 бит
Тип развёртки : Прогрессивная
Заголовок : Ticks 1993
Default : Да
Forced : Нет
Основные цвета : BT.709
Характеристики трансфера : BT.709
Коэффициенты матрицы : BT.709
Аудио #1
Идентификатор : 2
Формат : AC-3
Формат/Информация : Audio Coding 3
Расширение режима : CM (complete main)
Параметр Endianness формата : Big
Идентификатор кодека : A_AC3
Продолжительность : 1 ч. 25 м.
Вид битрейта : Постоянный
Битрейт : 192 Кбит/сек
Каналы : 2 канала
Расположение каналов : Front: L R
Частота : 48,0 КГц
Битовая глубина : 16 бит
Метод сжатия : С потерями
Размер потока : 118 Мбайт (1%)
Заголовок : MVO AC3 2.0 192 kbps
Язык : Russian
Default : Нет
Forced : Нет
Аудио #2
Идентификатор : 3
Формат : AC-3
Формат/Информация : Audio Coding 3
Расширение режима : CM (complete main)
Параметр Endianness формата : Big
Идентификатор кодека : A_AC3
Продолжительность : 1 ч. 25 м.
Вид битрейта : Постоянный
Битрейт : 192 Кбит/сек
Каналы : 2 канала
Расположение каналов : Front: L R
Частота : 48,0 КГц
Битовая глубина : 16 бит
Метод сжатия : С потерями
Размер потока : 118 Мбайт (1%)
Заголовок : Zhivov AC3 2.0 192 kbps
Язык : Russian
Default : Нет
Forced : Нет
Аудио #3
Идентификатор : 4
Формат : DTS
Формат/Информация : Digital Theater Systems
Профиль формата : MA / Core
Режим : 16
Параметр Endianness формата : Big
Идентификатор кодека : A_DTS
Продолжительность : 1 ч. 25 м.
Вид битрейта : Переменный
Битрейт : Неизвестно / 1509 Кбит/сек
Каналы : 2 канала
Расположение каналов : Front: L R
Частота : 48,0 КГц
Битовая глубина : 16 бит
Метод сжатия : Без потерь / Lossy
Заголовок : Original DTS-HD MA 2.0 1585 kbps
Язык : English
Default : Нет
Forced : Нет
Меню
00:00:00.000 : en:00:00:00.000
00:09:01.750 : en:00:09:01.750
00:18:03.666 : en:00:18:03.666
00:28:20.198 : en:00:28:20.198
00:38:04.115 : en:00:38:04.115
00:50:39.620 : en:00:50:39.620
00:58:51.445 : en:00:58:51.445
01:14:15.951 : en:01:14:15.951

Скриншоты

[Цитировать]



Показать сообщения:    

Текущее время: 09-Дек 06:59

Часовой пояс: UTC + 3


Вы не можете начинать темы
Вы не можете отвечать на сообщения
Вы не можете редактировать свои сообщения
Вы не можете удалять свои сообщения
Вы не можете голосовать в опросах
Вы не можете прикреплять файлы к сообщениям
Вы не можете скачивать файлы

!ВНИМАНИЕ!
Сайт не предоставляет электронные версии произведений, а занимается лишь коллекционированием и каталогизацией ссылок, присылаемых и публикуемых на форуме нашими читателями. Если вы являетесь правообладателем какого-либо представленного материала и не желаете, чтобы ссылка на него находилась в нашем каталоге, свяжитесь с нами, и мы незамедлительно удалим ее. Файлы для обмена на трекере предоставлены пользователями сайта, и администрация не несет ответственности за их содержание. Просьба не заливать файлы, защищенные авторскими правами, а также файлы нелегального содержания!