[ Сегодня идет свободное скачивание без начисления Download ]


Статистика раздачи
Нет
 
   
 
Top  
 
 
-Если хочешь хорошо провести время, звони… / For a Good Time, Call... (2012) BDRip [1080p]- Русское название: Если хочешь хорошо провести время, звони…
Оригинальное название: For a Good Time, Call...
Год выпуска: 2012
Производство: США
Жанр: Комедия
Перевод: Дублированный, лицензия R5
Язык субтитров: Английский, испанский
Вид субтитров: Вшитые, отключаемые
Описание фильма:
Две молодые девушки запускают собственный бизнес, представляющий собой предоставление услуг секса по телефону.
Режиссер: Джеми Трэвис / Jamie Travis
Актеры: Лорен Миллер, Джеймс Волк, Эри Грейнор, Джастин Лонг, Лоуренс Мэндли, Эдди Геллер, Джош Рубен, Стивен Шоу, Мими Роджерс, Дон МакМанус

Дата мировой премьеры: 26 января 2012
Продолжительность: 01:27:27
Качество видео: BDRip 1080p [DUAL]
Видеокодек: MPEG-4 AVC/H.264
Видео: H.264, битрейт: 11,3 Мбит/сек, 1920x816, 23,976 кадра/сек
Аудио #1: Русский: АС3, 5.1, 384 Кбит/сек, 48 kHz, 16 bit - дублированный, R5
Аудио #2: Английский: DTS, 5.1, 1536 Кбит/сек, 48 kHz, 24 bit
Аудио #3: Испанский: АС3, 5.1, 384 Кбит/сек, 48 kHz, 16 bit

Сохранены оригинальные чаптеры как на Blu-Ray

MediaInfo

Уникальный идентификатор : 197214650200488630295087665305863519947 (0x945E28F7AE1744718A4E0C1C011AFECB)
Полное имя : D:\Video\For.A.Good.Time.Call.2012.BDRip.1080p.ac3.dts.Rus.Eng.Spa.mkv
Формат : Matroska
Версия формата : Version 2
Размер файла : 8,30 Гбайт
Продолжительность : 1 ч. 27 м.
Общий поток : 13,6 Мбит/сек
Дата кодирования : UTC 2013-03-17 12:52:32
Программа кодирования : mkvmerge v5.4.0 ('Piper') built on Mar 10 2012 13:34:39
Библиотека кодирования : libebml v1.2.3 + libmatroska v1.3.0
Видео
Идентификатор : 1
Формат : AVC
Формат/Информация : Advanced Video Codec
Профиль формата : High@L4.1
Параметр CABAC формата : Да
Параметр ReFrames формата : 5 кадров
Идентификатор кодека : V_MPEG4/ISO/AVC
Продолжительность : 1 ч. 27 м.
Битрейт : 11,3 Мбит/сек
Ширина : 1920 пикселей
Высота : 816 пикселей
Соотношение сторон : 2,35:1
Частота кадров : 23,976 кадра/сек
Цветовое пространство : YUV
Субдискретизация насыщенности : 4:2:0
Битовая глубина : 8 бит
Тип развёртки : Прогрессивная
Бит/(Пиксели*Кадры) : 0.301
Размер потока : 6,74 Гбайт (81%)
Библиотека кодирования : x264 core 129 r2230+696+35 805d074 tMod [8-bit@all X86_64]
Настройки программы : cabac=1 / ref=5 / deblock=1:-3:-3 / analyse=0x3:0x133 / me=umh / subme=10 / psy=1 / fade_compensate=0.00 / psy_rd=1.05:0.10 / mixed_ref=1 / me_range=48 / chroma_me=1 / trellis=2 / 8x8dct=1 / cqm=0 / deadzone=21,11 / fast_pskip=0 / chroma_qp_offset=-3 / threads=12 / lookahead_threads=2 / sliced_threads=0 / nr=0 / decimate=1 / interlaced=0 / bluray_compat=0 / constrained_intra=0 / fgo=0 / bframes=8 / b_pyramid=2 / b_adapt=2 / b_bias=0 / direct=3 / weightb=1 / open_gop=0 / weightp=2 / keyint=250 / keyint_min=23 / scenecut=40 / intra_refresh=0 / rc_lookahead=80 / rc=2pass / mbtree=1 / bitrate=11316 / ratetol=1.0 / qcomp=0.60 / qpmin=0 / qpmax=69 / qpstep=4 / cplxblur=20.0 / qblur=0.5 / ip_ratio=1.40 / aq=3:0.80
Язык : English
Default : Да
Forced : Нет
Аудио #1
Идентификатор : 2
Формат : AC-3
Формат/Информация : Audio Coding 3
Расширение режима : CM (complete main)
Идентификатор кодека : A_AC3
Продолжительность : 1 ч. 27 м.
Вид битрейта : Постоянный
Битрейт : 384 Кбит/сек
Каналы : 6 каналов
Расположение каналов : Front: L C R, Side: L R, LFE
Частота : 48,0 КГц
Битовая глубина : 16 бит
Метод сжатия : С потерями
Размер потока : 240 Мбайт (3%)
Заголовок : DD 5.1 @ 384 kbps - Dub, R5
Язык : Russian
Default : Да
Forced : Да
Аудио #2
Идентификатор : 3
Формат : DTS
Формат/Информация : Digital Theater Systems
Идентификатор кодека : A_DTS
Продолжительность : 1 ч. 27 м.
Вид битрейта : Постоянный
Битрейт : 1510 Кбит/сек
Каналы : 6 каналов
Расположение каналов : Front: L C R, Side: L R, LFE
Частота : 48,0 КГц
Битовая глубина : 24 бит
Метод сжатия : С потерями
Задержка видео : 11 мс.
Размер потока : 944 Мбайт (11%)
Заголовок : DTS 5.1 @ 1536 kbps
Язык : English
Default : Нет
Forced : Нет
Аудио #3
Идентификатор : 4
Формат : AC-3
Формат/Информация : Audio Coding 3
Расширение режима : CM (complete main)
Идентификатор кодека : A_AC3
Продолжительность : 1 ч. 27 м.
Вид битрейта : Постоянный
Битрейт : 384 Кбит/сек
Каналы : 6 каналов
Расположение каналов : Front: L C R, Side: L R, LFE
Частота : 48,0 КГц
Битовая глубина : 16 бит
Метод сжатия : С потерями
Размер потока : 240 Мбайт (3%)
Заголовок : DD 5.1 @ 384 kbps
Язык : Spanish
Default : Нет
Forced : Нет
Текст #1
Идентификатор : 5
Формат : UTF-8
Идентификатор кодека : S_TEXT/UTF8
Идентификатор кодека/Информация : UTF-8 Plain Text
Заголовок : English Subtitles
Язык : English
Default : Да
Forced : Нет
Текст #2
Идентификатор : 6
Формат : UTF-8
Идентификатор кодека : S_TEXT/UTF8
Идентификатор кодека/Информация : UTF-8 Plain Text
Заголовок : Spanish Subtitles
Язык : Spanish
Default : Нет
Forced : Нет
Меню
00:00:00.000 : en:Chapter 01
00:00:11.651 : en:Chapter 02
00:03:25.386 : en:Chapter 03
00:06:38.746 : en:Chapter 04
00:10:48.245 : en:Chapter 05
00:15:14.928 : en:Chapter 06
00:19:15.543 : en:Chapter 07
00:26:42.698 : en:Chapter 08
00:30:56.202 : en:Chapter 09
00:37:05.904 : en:Chapter 10
00:42:41.531 : en:Chapter 11
00:47:09.382 : en:Chapter 12
00:51:33.896 : en:Chapter 13
00:55:39.350 : en:Chapter 14
00:58:25.975 : en:Chapter 15
01:02:36.642 : en:Chapter 16
01:06:58.028 : en:Chapter 17
01:10:41.251 : en:Chapter 18
01:15:13.940 : en:Chapter 19
01:19:05.964 : en:Chapter 20
01:24:22.071 : en:Chapter 21
01:27:38.642 : en:Chapter 22

Отличия от предыдущего подобного релиза

Предыдущий подобный релиз - Если хочешь хорошо провести время, звони… / For a Good Time, Call... (2012) BDRip [1080p]
Отличия:
1. Улучшенный видеоряд
2. Полная мозаика аудиодорог и субтитров
3. Наличие чаптеров
Скриншоты:


Время раздачи: с 10:00 до 20:00 (GMT+2) - до 10 скачавшихНе забываем говорить

[Цитировать]



Показать сообщения:    

Текущее время: 07-Дек 23:20

Часовой пояс: UTC + 3


Вы не можете начинать темы
Вы не можете отвечать на сообщения
Вы не можете редактировать свои сообщения
Вы не можете удалять свои сообщения
Вы не можете голосовать в опросах
Вы не можете прикреплять файлы к сообщениям
Вы не можете скачивать файлы

!ВНИМАНИЕ!
Сайт не предоставляет электронные версии произведений, а занимается лишь коллекционированием и каталогизацией ссылок, присылаемых и публикуемых на форуме нашими читателями. Если вы являетесь правообладателем какого-либо представленного материала и не желаете, чтобы ссылка на него находилась в нашем каталоге, свяжитесь с нами, и мы незамедлительно удалим ее. Файлы для обмена на трекере предоставлены пользователями сайта, и администрация не несет ответственности за их содержание. Просьба не заливать файлы, защищенные авторскими правами, а также файлы нелегального содержания!