[ Сегодня идет свободное скачивание без начисления Download ]


Статистика раздачи
Нет
 
   
 
Top  
 
 
Мистер и миссис Смит / Mr. and Mrs. Smith [Полная версия / Unrated Edition] (2005) DVDRip- Русское название: Мистер и миссис Смит
Оригинальное название: Mr. and Mrs. Smith [Полная версия / Unrated Edition]
Год выпуска: 2005
Жанр: Боевик, Мелодрама, Комедия
Описание фильма:
Джон и Джейн женаты не так долго, но уже утомлены своим браком. Им кажется, что они знают друг о друге все. Но есть кое-что, что каждый предпочитает держать при себе: оба они — наемные убийцы, которые тайно путешествуют по миру, выполняя опасные миссии. Эти отдельные тайные приключения становятся их общей судьбой в тот момент, когда Джейн получает заказ на Джона, а Джон на Джейн.
Режиссер: Даг Лайман / Doug Liman
Актеры: Брэд Питт / Brad Pitt, Анджелина Джоли / Angelina Jolie, Грег Эллис / Greg Ellis, Тереза Баррера / Theresa Barrera, Адам Броуди / Adam Brody, Винс Вон / Vince Vaughn
Продолжительность: 02:05:28
Перевод: Авторский (одноголосый) Андрей Гаврилов

Источник/Качество: DVDRip
Формат: AVI
Видео: 720x304 (2.37:1), 23.976 fps, XviD build 73 ~1745 kbps avg, 0.33 bit/pixel
Аудио: 48 kHz, AC3 Dolby Digital, 3/2 (L,C,R,l,r) + LFE ch, ~448 kbps -
Гаврилов

Знаете ли Вы что...

  • Первым выбором на роль миссис Смит стала Николь Кидман. В свою очередь, роль мистера Смита изначально предполагалась для Джонни Деппа, однако актер был настолько нагружен другими проектами, что предпочел отклонить это предложение.
  • Также на роль миссис Смит предлагались кандидатуры Кэтрин Зета-Джонс и Кейт Бланшетт, а роль мистера Смита мог исполнить реальный Смит (Уилл).
  • Брэд Питт покинул проект после того, как из него ушла Николь Кидман. Однако, как только согласие на роль дала Анджелина Джоли, актёр вновь подтвердил своё участие.
  • Для того, чтобы получить приемлемый для проката подобной картины рейтинг (PG-13), создателям картины пришлось вырезать постельную сцену между персонажами Питта и Джоли.
  • Одна из жертв мистера Смита — Бенджамин — в начале фильма красуется в майке с названием фильма «Бойцовский клуб», в котором сыграл одну из главных ролей Брэд Питт.
  • В фильме есть элементы двух предыдущих «Мистера и миссис Смит», телесериала 1996 г. и эксцентрической комедии Альфреда Хичкока 1941 г.
  • Съемки фильма проходили в Сан Марино, штат Калифорния.
  • В разгар съемок ленты Питт на 3 месяца оставил проект, чтобы сняться в «12 друзьях Оушена».

Media Info

Общее
Полное имя : D:\Мои документы\Кинофильмы\Кино\Мои раздачи (незаболваненные)\Mr. & Mrs. Smith (Gavrilov) (DVDRip) by A.P..avi
Формат : AVI
Формат/Информация : Audio Video Interleave
Размер файла : 1,93 Гбайт
Продолжительность : 2 ч. 5 м.
Общий поток : 2203 Кбит/сек
Программа кодирования : VirtualDubMod 1.5.10.3 | www.virtualdub-fr.org || (build 2550/release)
Библиотека кодирования : VirtualDubMod build 2550/release
Видео
Идентификатор : 0
Формат : MPEG-4 Visual
Профиль формата : Advanced Simple@L5
Параметр BVOP формата : 1
Параметр QPel формата : Нет
Параметр GMC формата : Без точки перехода
Параметр матрицы формата : Выборочная
Идентификатор кодека : XVID
Идентификатор кодека/Подсказка : XviD
Продолжительность : 2 ч. 5 м.
Битрейт : 1745 Кбит/сек
Ширина : 720 пикселей
Высота : 304 пикселя
Соотношение сторон : 2,35:1
Частота кадров : 23,976 кадра/сек
Цветовое пространство : YUV
Субдискретизация насыщенности : 4:2:0
Битовая глубина : 8 бит
Тип развёртки : Прогрессивная
Метод сжатия : С потерями
Бит/(Пиксели*Кадры) : 0.333
Размер потока : 1,53 Гбайт (79%)
Библиотека кодирования : XviD 73
Аудио
Идентификатор : 1
Формат : AC-3
Формат/Информация : Audio Coding 3
Расширение режима : CM (complete main)
Параметр Endianness формата : Big
Идентификатор кодека : 2000
Продолжительность : 2 ч. 5 м.
Вид битрейта : Постоянный
Битрейт : 448 Кбит/сек
Каналы : 6 каналов
Расположение каналов : Front: L C R, Side: L R, LFE
Частота : 48,0 КГц
Битовая глубина : 16 бит
Метод сжатия : С потерями
Размер потока : 402 Мбайт (20%)
Выравнивание : Разделение по промежуткам
Продолжительность промежутка : 42 мс. (1,00 видеокадр)
Время предзагрузки промежутка : 500 мс.
Заголовок : Gavrilov

[Цитировать]



Показать сообщения:    

Текущее время: 11-Дек 01:19

Часовой пояс: UTC + 3


Вы не можете начинать темы
Вы не можете отвечать на сообщения
Вы не можете редактировать свои сообщения
Вы не можете удалять свои сообщения
Вы не можете голосовать в опросах
Вы не можете прикреплять файлы к сообщениям
Вы не можете скачивать файлы

!ВНИМАНИЕ!
Сайт не предоставляет электронные версии произведений, а занимается лишь коллекционированием и каталогизацией ссылок, присылаемых и публикуемых на форуме нашими читателями. Если вы являетесь правообладателем какого-либо представленного материала и не желаете, чтобы ссылка на него находилась в нашем каталоге, свяжитесь с нами, и мы незамедлительно удалим ее. Файлы для обмена на трекере предоставлены пользователями сайта, и администрация не несет ответственности за их содержание. Просьба не заливать файлы, защищенные авторскими правами, а также файлы нелегального содержания!