[ Сегодня идет свободное скачивание без начисления Download ]


Статистика раздачи
Нет
 
   
 
Top  
 
 
-Самозванец / The Imposter (2012) BDRip- Русское название: Самозванец
Оригинальное название: The Imposter
Год выпуска: 2012
Выпущено: Великобритания - 24 Seven Productions, A&E IndieFilms
Жанр: Биография, детектив
Перевод: Одноголосый закадровый
Автор перевода: den904
Язык субтитров: Русский, английский
Вид субтитров: Вшитые, отключаемые
Описание фильма:
1997 год. Пропавший три года назад Николас Баркли, мальчик из простой техасской семьи, невероятным образом найден в Испании. Семья счастлива: их не смущает даже то, что парень сменил цвет волос и глаз, говорит с акцентом и никого не узнаёт. На самом деле это Фредерик Бурден: самозванец-виртуоз и мастер обмана, менявший свою личность по меньшей мере 39 раз. Разоблачить мошенника Бурдена пытаются агент ФБР и частный детектив, но их ждёт встреча с куда более мрачными тайнами. Ведь у каждой лжи — две правды.
Режиссер: Барт Лэйтон / Bart Layton
Актеры: Фредерик Бурден, Адам О’Брайн, Кэри Гибсон, Анна Рубен, Беверли Доллархайд, Кэти Дресбах, Чарли Паркер, Алан Тичман, Нэнси Фишер, Иван Вильянуэва

Дата мировой премьеры: 23 января 2012
Дата российской премьеры: 22 ноября 2012, «Organic Films», «Utopia Pictures»
Продолжительность: 01:38:34
Качество видео: BDRip 1080p
Видеокодек: MPEG-4 AVC/H.264
Видео: H.264, 9604 Кбит/с, 1918x816 (2,35:1), 24 fps
Аудио #1: Русский: AC3, 5.1, 448 Кбит/с, 48 kHz, 16 bit - любительский одноголосый den904
Аудио #2: Английский: DTS, 5.1, 1536 Кбит/с, 48 kHz, 24 bit

Награды

Британская академия, 2013 год
Победитель: Лучший дебют сценариста, режиссера или продюсера (Барт Лэйтон, Дмитрий Доганис)
Номинации: Лучший документальный фильм
Санденс, 2012 год
Номинации: Гран-при в категории «Документальный фильм» (Программа «Мировое кино»)

Рецензия, отзыв о фильме

Документальный фильм о человеке, успешно выдававшим себя за пропавших детей, снятый при этом как триллер
В полицейский участок поступает звонок от пары туристов, будто бы обнаруживших под дождем в телефонной будке запуганного и неразговорчивого подростка. Того отводят в местный приют, но все что удается от него узнать это то, что он американец, его похитили и долгое время подвергали сексуальному насилию. Когда же на другом конце света раздается звонок и не самой благополучной техасской семье сообщают, что их пропавший ребенок нашелся спустя аж 4 года в далекой Испании, они вначале не поверят, но вскоре ухватятся за эту соломинку изо всех сил. Между тем достаточно взрослый уже мужчина сообщит с экрана глядя прямо на нас, что он никогда не думал о том причиняет ли он кому то боль и что он с детства чувствовал, что должен быть кем-то другим.
Если не знать, что «Самозванец» является документальным фильмом, то запросто можно принять его за несколько необычное плутовское кино, в котором непонятно все всерьез или тебя просто дурят. Однако Фредерик Бурден — это реально существующий мошенник, и поныне живущий во Франции, более 30 раз выдававший себя за тех или иных пропавших детей в самых разных странах Европы и даже Америки. Сейчас Бурден говорит, что завязал со своим странным пристрастием, однако поверить в то, что практически 25-летний молодой человек с успехом мог дурить и власти, и ФБР, и даже самих родителей, выдавая себя за 15-летних подростков, действительно очень сложно. Тем не менее, новоприобретенных родственников не смущают ни то, что их сын и брат практически ничего не помнит, ни то, что у него появился акцент, ни даже изменение цвета волос и глаз.
События, рассказанные в фильме и имевшие место на самом деле, интересны не только как очередная история из разряда «чего только не бывает на свете», хотя и в этом плане она удивительна, но интересна, прежде всего, как рассказ о людях, убитых своим горем и способных дойти до чего угодно вплоть до самовнушения, лишь бы решить свои собственные проблемы и избежать той трагедии, которая постигла их семью. При этом сам Бурден то пытается оправдать свои поступки желанием быть любимым и найти настоящую семью, то откровенно признается, что ему просто нравится обманывать людей. Он весь фильм точно также манипулирует эмоциями зрителя, как он это делал со своими жертвами. Его интуитивным даром входить в доверие, играть на чувствах и ожиданиях людей, конечно, нельзя не восторгаться, но при этом надо осознавать сколько горя он принес тем людям, которые ему однажды поверили.
Сам фильм достаточно необычен для документального кино. Он построен и снят по принципам игровых психологических триллеров с постоянным нагнетанием атмосфер. При этом зритель заранее в курсе о том, что Бурден самозванец и что, в конце концов, его поймают. Нельзя сказать, что прием этот работает на сто процентов, лично мне поначалу было несколько скучно и вся эта показная наигранность и сложность слегка идут вразрез с отсутствием интриги. Однако, нельзя не признать, что в итоге и режиссер и сам фильм добиваются своего и максимально приближают изначально документальное кино к полноценному игровому, а зритель начинает не просто следить сюжетом, но и сопереживать всем его участникам.

Интересно

Как минимум в пяти сценах видны высокие горы на фоне, включая сцену в аэропорту, сцену со школьным автобусом Николаса, и когда дети гуляют по пустырю. Предполагаемое место действия Сан-Антонио (Техас), но это не вяжется с тем, что на фоне мы видим настоящие горы. В финальных титрах все же указали, что некоторые сцены были сняты в Аризоне, в том числе в Финиксе, Бакайе и Авондейле, где на самом деле есть многочисленные горные хребты.

MediaInfo

Общее
Уникальный идентификатор : 233185564439336017739617086373327197170 (0xAF6DE7F72B5D797BA5C7DFBDA432D3F2)
Полное имя : D:\Video\The.Imposter.2012.BDRip.1080p.ac3.dts.Rus.Eng.mkv
Формат : Matroska
Версия формата : Version 2
Размер файла : 7,96 Гбайт
Продолжительность : 1 ч. 38 м.
Общий поток : 11,6 Мбит/сек
Название фильма : Release from VarMkn
Дата кодирования : UTC 2013-03-16 22:07:10
Программа кодирования : mkvmerge v5.4.0 ('Piper') built on Mar 10 2012 13:34:39
Библиотека кодирования : libebml v1.2.3 + libmatroska v1.3.0
Видео
Идентификатор : 1
Формат : AVC
Формат/Информация : Advanced Video Codec
Профиль формата : High@L4.1
Параметр CABAC формата : Да
Параметр ReFrames формата : 5 кадров
Идентификатор кодека : V_MPEG4/ISO/AVC
Продолжительность : 1 ч. 38 м.
Битрейт : 9604 Кбит/сек
Ширина : 1918 пикселей
Высота : 816 пикселей
Соотношение сторон : 2,35:1
Частота кадров : 24,000 кадра/сек
Цветовое пространство : YUV
Субдискретизация насыщенности : 4:2:0
Битовая глубина : 8 бит
Тип развёртки : Прогрессивная
Бит/(Пиксели*Кадры) : 0.256
Размер потока : 6,45 Гбайт (81%)
Библиотека кодирования : x264 core 120 r2164 da19765
Настройки программы : cabac=1 / ref=5 / deblock=1:-1:-1 / analyse=0x3:0x113 / me=umh / subme=7 / psy=1 / psy_rd=1.00:0.15 / mixed_ref=1 / me_range=16 / chroma_me=1 / trellis=1 / 8x8dct=1 / cqm=0 / deadzone=21,11 / fast_pskip=1 / chroma_qp_offset=-3 / threads=6 / sliced_threads=0 / nr=0 / decimate=1 / interlaced=0 / bluray_compat=0 / constrained_intra=0 / bframes=3 / b_pyramid=2 / b_adapt=2 / b_bias=0 / direct=1 / weightb=1 / open_gop=0 / weightp=2 / keyint=250 / keyint_min=24 / scenecut=40 / intra_refresh=0 / rc_lookahead=40 / rc=2pass / mbtree=1 / bitrate=9604 / ratetol=1.0 / qcomp=0.60 / qpmin=0 / qpmax=69 / qpstep=4 / cplxblur=20.0 / qblur=0.5 / ip_ratio=1.40 / aq=1:1.00
Язык : English
Default : Да
Forced : Нет
Аудио #1
Идентификатор : 2
Формат : AC-3
Формат/Информация : Audio Coding 3
Расширение режима : CM (complete main)
Идентификатор кодека : A_AC3
Продолжительность : 1 ч. 38 м.
Вид битрейта : Постоянный
Битрейт : 448 Кбит/сек
Каналы : 6 каналов
Расположение каналов : Front: L C R, Side: L R, LFE
Частота : 48,0 КГц
Битовая глубина : 16 бит
Метод сжатия : С потерями
Размер потока : 316 Мбайт (4%)
Заголовок : DD 5.1 @ 448 kbps VO
Язык : Russian
Default : Нет
Forced : Нет
Аудио #2
Идентификатор : 3
Формат : DTS
Формат/Информация : Digital Theater Systems
Идентификатор кодека : A_DTS
Продолжительность : 1 ч. 38 м.
Вид битрейта : Постоянный
Битрейт : 1510 Кбит/сек
Каналы : 6 каналов
Расположение каналов : Front: L C R, Side: L R, LFE
Частота : 48,0 КГц
Битовая глубина : 24 бит
Метод сжатия : С потерями
Размер потока : 1,04 Гбайт (13%)
Заголовок : DTS 5.1 @1536 kbps
Язык : English
Default : Нет
Forced : Нет
Текст #1
Идентификатор : 4
Формат : UTF-8
Идентификатор кодека : S_TEXT/UTF8
Идентификатор кодека/Информация : UTF-8 Plain Text
Заголовок : Russian Subs
Язык : Russian
Default : Нет
Forced : Нет
Текст #2
Идентификатор : 5
Формат : UTF-8
Идентификатор кодека : S_TEXT/UTF8
Идентификатор кодека/Информация : UTF-8 Plain Text
Заголовок : English Subs
Язык : English
Default : Нет
Forced : Нет
Скриншоты:
Время раздачи: с 10:00 до 20:00 (GMT+2) - до 5 скачавшихНе забываем говорить

[Цитировать]



Показать сообщения:    

Текущее время: 26-Мар 21:06

Часовой пояс: UTC + 6


Вы не можете начинать темы
Вы не можете отвечать на сообщения
Вы не можете редактировать свои сообщения
Вы не можете удалять свои сообщения
Вы не можете голосовать в опросах
Вы не можете прикреплять файлы к сообщениям
Вы не можете скачивать файлы

!ВНИМАНИЕ!
Сайт не предоставляет электронные версии произведений, а занимается лишь коллекционированием и каталогизацией ссылок, присылаемых и публикуемых на форуме нашими читателями. Если вы являетесь правообладателем какого-либо представленного материала и не желаете, чтобы ссылка на него находилась в нашем каталоге, свяжитесь с нами, и мы незамедлительно удалим ее. Файлы для обмена на трекере предоставлены пользователями сайта, и администрация не несет ответственности за их содержание. Просьба не заливать файлы, защищенные авторскими правами, а также файлы нелегального содержания!