[ Сегодня идет свободное скачивание без начисления Download ]


Статистика раздачи
Нет
 
   
 
Top  
 
 
-Цель номер один / Zero Dark Thirty (2012) HDRip
«Десять лет женщина провела в поисках самого опасного в мире человека»
- Русское название: Цель номер один
Оригинальное название: Zero Dark Thirty
Год выпуска: 2012
Производство: США / Annapurna Pictures
Жанр: Триллер, Драма, История
Перевод: Авторский одноголосый, закадровый
Озвучка / Автор перевода: Юрий Живов
Субтитры: Отсутствуют
Дата мировой премьеры: 19 декабря 2012
Дата российской премьеры: 21 февраля 2013, «Централ Партнершип»
Дата выхода DVD релиза: 2 апреля 2013, «Флагман-Трейд»
Дата выхода Blu-Ray релиза: 2 апреля 2013, «Флагман-Трейд»
Режиссер: Кэтрин Бигелоу
Актеры: Джессика Честейн, Джейсон Кларк, Джоэл Эдгертон, Дженнифер Или, Марк Стронг, Кайл Чандлер, Эдгар Рамирез, Джеймс Гандольфини, Крис Прэтт, Каллэн Мулвей
Описание фильма:
История одной из операций спецслужб США по поимке «террориста N1» Усамы Бен Ладена.

Продолжительность: 02:36:59
Качество видео: HDRip
Видеокодек: Xvid
Битрейт видео: ~1411 Кбит/сек
Размер кадра: 720x384
Аудиокодек: AC3 5.1
Битрейт аудио: 448 Кбит/сек

MediaInfo:

Общее
Полное имя                       : H:\Tzeli.nomer.odin.2012.P1.HDRip.2100MB.avi
Формат                           : AVI
Формат/Информация                : Audio Video Interleave
Профиль формата                  : OpenDML
Размер файла                     : 2,05 Гбайт
Продолжительность                : 2 ч. 36 м.
Общий поток                      : 1871 Кбит/сек
Программа кодирования            : VirtualDubMod 1.5.10.2 (build 2540/release)
Библиотека кодирования           : VirtualDubMod build 2540/release
Видео
Идентификатор                    : 0
Формат                           : MPEG-4 Visual
Профиль формата                  : Advanced Simple@L5
Параметр BVOP формата            : 2
Параметр QPel формата            : Нет
Параметр GMC формата             : Без точки перехода
Параметр матрицы формата         : Default (MPEG)
Идентификатор кодека             : XVID
Идентификатор кодека/Подсказка   : XviD
Продолжительность                : 2 ч. 36 м.
Битрейт                          : 1411 Кбит/сек
Ширина                           : 720 пикселей
Высота                           : 384 пикселя
Соотношение сторон               : 1,875
Частота кадров                   : 23,976 кадра/сек
Цветовое пространство            : YUV
Субдискретизация насыщенности    : 4:2:0
Битовая глубина                  : 8 бит
Тип развёртки                    : Прогрессивная
Метод сжатия                     : С потерями
Бит/(Пиксели*Кадры)              : 0.213
Размер потока                    : 1,55 Гбайт (75%)
Библиотека кодирования           : XviD 1.2.1 (UTC 2008-12-04)
Аудио
Идентификатор                    : 1
Формат                           : AC-3
Формат/Информация                : Audio Coding 3
Расширение режима                : CM (complete main)
Идентификатор кодека             : 2000
Продолжительность                : 2 ч. 36 м.
Вид битрейта                     : Постоянный
Битрейт                          : 448 Кбит/сек
Каналы                           : 6 каналов
Расположение каналов             : Front: L C R, Side: L R, LFE
Частота                          : 48,0 КГц
Битовая глубина                  : 16 бит
Метод сжатия                     : С потерями
Размер потока                    : 503 Мбайт (24%)
Выравнивание                     : Разделение по промежуткам
Продолжительность промежутка     : 42  мс. (1,00 видеокадр)
Время предзагрузки промежутка    : 500  мс.
Скриншоты:



Время раздачи: 16.30-23.00 до 5 скачавших

[Цитировать]

Топик был перенесен из форума Новинки кинопроката в форум Триллер
Henkok



Показать сообщения:    

Текущее время: 08-Дек 08:59

Часовой пояс: UTC + 3


Вы не можете начинать темы
Вы не можете отвечать на сообщения
Вы не можете редактировать свои сообщения
Вы не можете удалять свои сообщения
Вы не можете голосовать в опросах
Вы не можете прикреплять файлы к сообщениям
Вы не можете скачивать файлы

!ВНИМАНИЕ!
Сайт не предоставляет электронные версии произведений, а занимается лишь коллекционированием и каталогизацией ссылок, присылаемых и публикуемых на форуме нашими читателями. Если вы являетесь правообладателем какого-либо представленного материала и не желаете, чтобы ссылка на него находилась в нашем каталоге, свяжитесь с нами, и мы незамедлительно удалим ее. Файлы для обмена на трекере предоставлены пользователями сайта, и администрация не несет ответственности за их содержание. Просьба не заливать файлы, защищенные авторскими правами, а также файлы нелегального содержания!