[ Сегодня идет свободное скачивание без начисления Download ]


Статистика раздачи
Нет
 
   
 
Top  
 
 
-Лофт / Loft (2008) BDRip- Русское название: Лофт
Оригинальное название: Loft
Страна: Бельгия
Производство: Woestijnvis
Год выпуска: 2008
Жанр: Триллер, Детектив, Криминал-Описание фильма:
Пятеро женатых друзей снимают лофт для встреч с любовницами. Однажды они находят там тело молодой женщины. Ключей к лофту всего пять. Друзья начинают подозревать друг друга...-Режиссер: Эрик Ван Луи
Актеры: Коэн Де Боу, Филип Питерс, Матиас Скунартс, Bruno Vanden Broucke, Koen De Graeve, Veerle Baetens, Тине Реймер, Эн Миллер, Charlotte Vandermeersch, Wine Dierickx-Сценарий: Барт Де Пау
Продюсер: Хильде Де Лаере
Оператор: Дэнни Эльзен-Продолжительность: 01:57:38
Перевод: Авторский одноголосый (Вадим Белов)
Субтитры: Русские, английские- -Видеокодек: MPEG-4 AVC/H.264
Битрейт видео: ~10.0 Mbps
Размер кадра: 1920x816p
Качество видео: BDRip-Аудио 1: Русский DTS 5.1, 48 KHz, 1536 kbps
Аудио 2: Немецкий DTS 5.1, 48 KHz, 1536 kbps
-

MediaInfo:

General
Complete name : E:\Loft.2008.BD.Rip.1080p.mkv
Format : Matroska
File size : 11.0 GiB
Duration : 1h 57mn
Overall bit rate : 13.3 Mbps
Encoded date : UTC 2011-03-29 22:24:04
Writing application : mkvmerge v4.6.0 ('Still Crazy After All These Years') built on Mar 13 2011 18:33:29
Writing library : libebml v1.2.0 + libmatroska v1.1.0
Video
ID : 1
Format : AVC
Format/Info : Advanced Video Codec
Format profile : High@L4.1
Format settings, CABAC : Yes
Format settings, ReFrames : 5 frames
Muxing mode : Container profile=Unknown@4.1
Codec ID : V_MPEG4/ISO/AVC
Duration : 1h 57mn
Bit rate : 10.0 Mbps
Nominal bit rate : 10.3 Mbps
Width : 1 920 pixels
Height : 816 pixels
Display aspect ratio : 2.35:1
Frame rate : 24.000 fps
Resolution : 8 bits
Colorimetry : 4:2:0
Scan type : Progressive
Bits/(Pixel*Frame) : 0.267
Stream size : 8.25 GiB (75%)
Writing library : x264 core 114 r1913 5fd3dce
Encoding settings : cabac=1 / ref=5 / deblock=1:-3:-3 / analyse=0x3:0x113 / me=umh / subme=10 / psy=1 / psy_rd=1.00:0.00 / mixed_ref=1 / me_range=32 / chroma_me=1 / trellis=2 / 8x8dct=1 / cqm=0 / deadzone=21,11 / fast_pskip=0 / chroma_qp_offset=-2 / threads=6 / sliced_threads=0 / nr=0 / decimate=0 / interlaced=0 / constrained_intra=0 / bframes=12 / b_pyramid=2 / b_adapt=2 / b_bias=0 / direct=3 / weightb=1 / open_gop=0 / weightp=2 / keyint=250 / keyint_min=24 / scenecut=40 / intra_refresh=0 / rc=2pass / mbtree=0 / bitrate=10307 / ratetol=1.0 / qcomp=0.60 / qpmin=0 / qpmax=69 / qpstep=4 / cplxblur=20.0 / qblur=0.5 / ip_ratio=1.40 / pb_ratio=1.30 / aq=1:0.60
Language : Dutch
Audio #1
ID : 2
Format : DTS
Format/Info : Digital Theater Systems
Codec ID : A_DTS
Duration : 1h 57mn
Bit rate mode : Constant
Bit rate : 1 510 Kbps
Channel(s) : 6 channels
Channel positions : Front: L C R, Surround: L R, LFE
Sampling rate : 48.0 KHz
Resolution : 16 bits
Stream size : 1.24 GiB (11%)
Title : AVO Belov DTS 5.1 1536 kbps
Language : Russian
Audio #2
ID : 3
Format : DTS
Format/Info : Digital Theater Systems
Codec ID : A_DTS
Duration : 1h 57mn
Bit rate mode : Constant
Bit rate : 1 510 Kbps
Channel(s) : 6 channels
Channel positions : Front: L C R, Surround: L R, LFE
Sampling rate : 48.0 KHz
Resolution : 16 bits
Stream size : 1.24 GiB (11%)
Title : DTS 5.1 1536 kbps
Language : Dutch
Text #1
ID : 4
Format : UTF-8
Codec ID : S_TEXT/UTF8
Codec ID/Info : UTF-8 Plain Text
Language : Russian
Text #2
ID : 5
Format : UTF-8
Codec ID : S_TEXT/UTF8
Codec ID/Info : UTF-8 Plain Text
Menu
00:00:00.000 : en:Chapter 1
00:05:20.667 : en:Chapter 2
00:11:38.625 : en:Chapter 3
00:20:52.042 : en:Chapter 4
00:27:06.708 : en:Chapter 5
00:31:42.458 : en:Chapter 6
00:40:06.625 : en:Chapter 7
00:46:36.750 : en:Chapter 8
00:51:56.292 : en:Chapter 9
01:00:15.875 : en:Chapter 10
01:06:05.542 : en:Chapter 11
01:12:31.417 : en:Chapter 12
01:17:54.375 : en:Chapter 13
01:27:49.125 : en:Chapter 14
01:32:44.167 : en:Chapter 15
01:38:28.583 : en:Chapter 16
01:47:06.500 : en:Chapter 17
01:53:36.583 : en:Chapter 18
-Скриншоты:
Время раздачи: 24/7 - круглосуточно

[Цитировать]



Показать сообщения:    

Текущее время: 08-Дек 03:08

Часовой пояс: UTC + 3


Вы не можете начинать темы
Вы не можете отвечать на сообщения
Вы не можете редактировать свои сообщения
Вы не можете удалять свои сообщения
Вы не можете голосовать в опросах
Вы не можете прикреплять файлы к сообщениям
Вы не можете скачивать файлы

!ВНИМАНИЕ!
Сайт не предоставляет электронные версии произведений, а занимается лишь коллекционированием и каталогизацией ссылок, присылаемых и публикуемых на форуме нашими читателями. Если вы являетесь правообладателем какого-либо представленного материала и не желаете, чтобы ссылка на него находилась в нашем каталоге, свяжитесь с нами, и мы незамедлительно удалим ее. Файлы для обмена на трекере предоставлены пользователями сайта, и администрация не несет ответственности за их содержание. Просьба не заливать файлы, защищенные авторскими правами, а также файлы нелегального содержания!