[ Сегодня идет свободное скачивание без начисления Download ]


Статистика раздачи
Нет
 
   
 
Top  
 
 
-Безопасность не гарантируется / Safety Not Guaranteed (2012) BDRip [1080p]- Русское название: Безопасность не гарантируется
Оригинальное название: Safety Not Guaranteed
Год выпуска: 2012
Выпущено: США / Big Beach Films, Duplass Brothers Productions
Жанр: Комедия
Перевод: Многоголосый закадровый
Язык субтитров: Русский, английский, английский (SDH)
Вид субтитров: Вшитые, отключаемые
Описание фильма:
Троим журналистам поручают взять интервью у парня, который разместил весьма странное объявление о том, что ищет напарника для путешествий во времени.
Режиссер: Колин Треворроу / Colin Trevorrow
Актеры: Обри Плаза, Бейзил Харрис, Мэри Линн Райскаб, Джэйк М. Джонсон, Каран Сони, Дэвид Шульц, Джефф Гарлин, Марк Дюпласс, Уильям Холл мл.- -
Дата мировой премьеры: 22 января 2012
Дата российской премьеры: 28 февраля 2013, «P&I Films»
Продолжительность: 01:25:47
Качество видео: BDRip 1080p
Видеокодек: MPEG-4 AVC/H.264
Видео: H.264, 12.6 мбит/с, 1920x816, 23,976 кадра/сек
Аудио #1: Русский: AC3, 192 kb/s, 2.0, 48 kHz, 16 bit - многоголосый закадровый
Аудио #2: Английский: DTS, 5.1, 1536 kb/s, 48 kHz, 24 bit

Сохранены оригинальные чаптеры как на Blu-Ray

Рецензия, отзыв о фильме

Иногда случайно проскальзывает подобный фильм. Вроде и начинаешь смотреть, ни на что особо не рассчитывая — достаточно стандартная завязка, скупое описание, малоизвестный режиссер, а потом затягивает… Ведь и хронометраж небольшой — где там авторам развернуться с Историей, но оказывается нужно только малая толика того, что называют талантом и лиричностью.
Завязка фильма необычна. На планерке журнала, судя по всему сиэттлского, из-за отсутствия ходовых тем редактор ухватывается за странное объявление — человек ищет спутника для путешествий во времени. В небольшой приморский курортный городок, откуда пришло объявление, отправляется группа из журналиста Джейка и двух молодых ассистентов — замкнутой девушки Дэриус (Обри Плаза) и юноши Арно. Скорее не в поисках явного материала, а для галочки. Побеседовать с очередным в лучшем случае фриком, из числа завсегдатаев разных псевдонаучных сайтов, а в худшем — с банальным любителем розыгрышей. Ну и проветриться, развеяться на лоне природы вдали от надоевшего города, побродить по пустынным пляжам и заполненным барам.
Автора заметки находят, звать его Кеннет (Марк Дюпласс), работает продавцом в супермаркете и, действительно, мастерит что-то непонятное у себя в гараже. Дэриус, выступающей под «легендой» потенциального спутника, заинтересовавшегося темой путешествий во времени, удается завязать с ним контакт.
Что дальше? Большую часть фильма идет неспешное развитие событий. Дэриус постепенно находит общий язык и взаимопонимание с Кеннетом, пускаясь во все тяжкие и постепенно сама начиная подспудно верить в безумную, вроде, идею. Джефф, оставив написание статьи на помощницу, отправляется по волнам воспоминаний и возобновляет давно погасший роман пятнадцатилетней давности со старой местной знакомой. Сама машина времени вплоть до финала вынесена за скобки повествования и остается загадкой, будоражащей сознание зрителя. Есть ли она вообще, или только плод фантазии безумца? Вдобавок с середины фильма появляются два явно правительственных агента, которые ненавязчиво «пасут» Кеннета. Их появление нагоняет еще больше туману и задает новые вопросы.
Конечно фильм не фантастический, вернее не совсем фантастический. Речь здесь идет, скорее, о погружение в свое прошлое, в воспоминания, сочащиеся из сердца, в моменты, которые давно уже за плечами, но не забываются и острой занозой иногда впиваются в душу. О том, что бы человек изменил в прошедшей уже жизни, если бы смог. О том, возможно ли попытаться отыграть время назад и войти в одну реку дважды.
Тема вроде бы не раз затронутая и в кино, и в литературе, но Треворроу действительно талантливый режиссер и от фильма сложно оторваться. Здесь собралось все — и отличный сценарий, и хорошая режиссура, и запоминающаяся музыка. И конечно актеры. Обри Плаза я встречал раньше только в эпизодических ролях, а здесь она производит отличное впечатление. Стопроцентное попадание в роль — замкнутая, ироничная, себе на уме, нелюдимая. Марк Дюпласс — Кеннет — неплох. Есть в нем толика отчаянного безумия человека, который равноценно может весь фильм искренне валять дурака, сам поверив, что у него есть машина времени, а может и действительно тачать ее в гараже из швейной машинки, чайника и синхрофазотрона. Ответ на вопросы так и не будет дан до самого финала.
Фильм действительно стоит посмотреть.
9 из 10

MediaInfo

Общее
Уникальный идентификатор : 216032669113568322024521191474947362980 (0xA28660EEA0BAFC9FB963F6A52AD310A4)
Полное имя : D:\Video\Safety.Not.Guaranteed.2012.BDRip.1080p.ac3.dts.Rus.Eng.mkv
Формат : Matroska
Версия формата : Version 2
Размер файла : 8,58 Гбайт
Продолжительность : 1 ч. 25 м.
Общий поток : 14,3 Мбит/сек
Дата кодирования : UTC 2013-03-12 10:44:54
Программа кодирования : mkvmerge v5.4.0 ('Piper') built on Mar 10 2012 13:34:39
Библиотека кодирования : libebml v1.2.3 + libmatroska v1.3.0
Видео
Идентификатор : 1
Формат : AVC
Формат/Информация : Advanced Video Codec
Профиль формата : High@L4.1
Параметр CABAC формата : Да
Параметр ReFrames формата : 5 кадров
Идентификатор кодека : V_MPEG4/ISO/AVC
Продолжительность : 1 ч. 25 м.
Битрейт : 12,6 Мбит/сек
Ширина : 1920 пикселей
Высота : 816 пикселей
Соотношение сторон : 2,35:1
Частота кадров : 23,976 кадра/сек
Цветовое пространство : YUV
Субдискретизация насыщенности : 4:2:0
Битовая глубина : 8 бит
Тип развёртки : Прогрессивная
Бит/(Пиксели*Кадры) : 0.336
Размер потока : 7,39 Гбайт (86%)
Заголовок : Safety.Not.Guaranteed.2012.1080p.BluRay.ac3.dts.Rus.Eng.x264
Библиотека кодирования : x264 core 128 r2216 198a7ea
Настройки программы : cabac=1 / ref=5 / deblock=1:-3:-3 / analyse=0x3:0x113 / me=umh / subme=11 / psy=1 / psy_rd=0.97:0.00 / mixed_ref=1 / me_range=48 / chroma_me=1 / trellis=2 / 8x8dct=1 / cqm=0 / deadzone=21,11 / fast_pskip=0 / chroma_qp_offset=-2 / threads=12 / lookahead_threads=2 / sliced_threads=0 / nr=0 / decimate=1 / interlaced=0 / bluray_compat=0 / constrained_intra=0 / bframes=7 / b_pyramid=2 / b_adapt=2 / b_bias=0 / direct=3 / weightb=1 / open_gop=0 / weightp=2 / keyint=240 / keyint_min=23 / scenecut=40 / intra_refresh=0 / rc_lookahead=80 / rc=2pass / mbtree=1 / bitrate=12622 / ratetol=1.0 / qcomp=0.70 / qpmin=0 / qpmax=69 / qpstep=4 / cplxblur=20.0 / qblur=0.5 / ip_ratio=1.40 / aq=1:0.90
Язык : English
Default : Да
Forced : Да
Аудио #1
Идентификатор : 2
Формат : AC-3
Формат/Информация : Audio Coding 3
Расширение режима : CM (complete main)
Идентификатор кодека : A_AC3
Продолжительность : 1 ч. 25 м.
Вид битрейта : Постоянный
Битрейт : 192 Кбит/сек
Каналы : 2 канала
Расположение каналов : Front: L R
Частота : 48,0 КГц
Битовая глубина : 16 бит
Метод сжатия : С потерями
Размер потока : 118 Мбайт (1%)
Заголовок : DD 2.0 @ 192 kbps - MVO
Язык : Russian
Default : Да
Forced : Да
Аудио #2
Идентификатор : 3
Формат : DTS
Формат/Информация : Digital Theater Systems
Идентификатор кодека : A_DTS
Продолжительность : 1 ч. 25 м.
Вид битрейта : Постоянный
Битрейт : 1510 Кбит/сек
Каналы : 6 каналов
Расположение каналов : Front: L C R, Side: L R, LFE
Частота : 48,0 КГц
Битовая глубина : 24 бит
Метод сжатия : С потерями
Размер потока : 926 Мбайт (11%)
Заголовок : DTS 5.1 @ 1536 kbps
Язык : English
Default : Нет
Forced : Нет
Текст #1
Идентификатор : 4
Формат : UTF-8
Идентификатор кодека : S_TEXT/UTF8
Идентификатор кодека/Информация : UTF-8 Plain Text
Заголовок : Russian Subtitles
Язык : Russian
Default : Нет
Forced : Нет
Текст #2
Идентификатор : 5
Формат : UTF-8
Идентификатор кодека : S_TEXT/UTF8
Идентификатор кодека/Информация : UTF-8 Plain Text
Заголовок : English Subtitles
Язык : English
Default : Нет
Forced : Нет
Текст #3
Идентификатор : 6
Формат : UTF-8
Идентификатор кодека : S_TEXT/UTF8
Идентификатор кодека/Информация : UTF-8 Plain Text
Заголовок : English SDH Subtitles
Язык : English
Default : Нет
Forced : Нет
Меню
00:00:00.000 : en:Chapter 01
00:05:57.190 : en:Chapter 02
00:12:43.679 : en:Chapter 03
00:18:08.378 : en:Chapter 04
00:23:40.001 : en:Chapter 05
00:26:50.191 : en:Chapter 06
00:31:09.409 : en:Chapter 07
00:34:22.769 : en:Chapter 08
00:38:21.549 : en:Chapter 09
00:46:51.266 : en:Chapter 10
00:51:50.023 : en:Chapter 11
00:57:20.395 : en:Chapter 12
01:05:30.676 : en:Chapter 13
01:09:57.610 : en:Chapter 14
01:15:03.332 : en:Chapter 15
01:17:46.828 : en:Chapter 16
Скриншоты:

[Цитировать]

Топик был перенесен из форума Новинки кинопроката (HD Video) в форум Зарубежное кино (HD Video)
Bootch



Показать сообщения:    

Текущее время: 10-Дек 00:21

Часовой пояс: UTC + 3


Вы не можете начинать темы
Вы не можете отвечать на сообщения
Вы не можете редактировать свои сообщения
Вы не можете удалять свои сообщения
Вы не можете голосовать в опросах
Вы не можете прикреплять файлы к сообщениям
Вы не можете скачивать файлы

!ВНИМАНИЕ!
Сайт не предоставляет электронные версии произведений, а занимается лишь коллекционированием и каталогизацией ссылок, присылаемых и публикуемых на форуме нашими читателями. Если вы являетесь правообладателем какого-либо представленного материала и не желаете, чтобы ссылка на него находилась в нашем каталоге, свяжитесь с нами, и мы незамедлительно удалим ее. Файлы для обмена на трекере предоставлены пользователями сайта, и администрация не несет ответственности за их содержание. Просьба не заливать файлы, защищенные авторскими правами, а также файлы нелегального содержания!