[ Сегодня идет свободное скачивание без начисления Download ]


Статистика раздачи
Нет
 
   
 
Top  
 
 
-Битва у Красной скалы / Red Cliff / Chi bi (2008) BDRip [1080p]-«Древний Китай. Миллионная армия. Знаменитая битва.»- Русское название: Битва у Красной скалы
Оригинальное название: Chi bi
Год выпуска: 2008
Произвоство: Китай
Жанр: боевик, драма, приключения, военный, история
Перевод: Многоголосый закадровый, |Киномания|, Одноголосый закадровый, |Ю.Сербин|
Язык субтитров: Русский, английский
Вид субтитров: Вшитые, отключаемые
Описание фильма:
208-й год н.э., закат династии Хань. Первый министр Цао Цао (Чжан Фэнъи), опереточный злодей с разбитым сердцем и грозными геополитическими амбициями, прикрываясь волей императора, идёт прижимать к ногтю южные княжества. На юге масса хороших бойцов и удобные скалы, но проблемы с политической волей. Благообразные князья возмущаются зверствам северян в отношении мирного населения и спорят, что дальновидней - спрятаться со всеми подданными или пойти на поклон к врагу. Не по годам сообразительному молодому дипломату Чжугэ Ляну (Такеси Канесиро) в какой-то момент надоедает всё это слушать; он сперва настраивает на боевой лад собственного правителя, потом проводит сеанс конфуцианской терапии с соседским (тоже очень молодым и в будущем великим, но пока страдающим от хронического неверия в себя) и, наконец, главное, отрывает от дирижирования манёврами наместника Чжоу Юя (Тони Люн Чу Вай), Моцарта военной стратегии, заядлого лошадника, голубятника и мастера игры на гуцинь, а также на зависть всем мужа самой красивой девушки Под­небесной...
Режиссер: Джон Ву
Актеры: Тони Люн Чу Вай, Такеши Канеширо, Чжан Фэнъи, Чжан Чжэнь, Чжао Вэй, Ху Цзюнь, Шидо Накамура, Линь Чжилин, Юн Ю, Йонг Хоу

рейтинг R - лицам до 17 лет обязательно присутствие взрослого
Возраст 16+ -зрителям, достигшим 16 лет-Продолжительность: 02:25:19
Качество видео: BDRip
Контейнер: MKV
Видеокодек: MPEG-4 AVC/H.264
Видео: ~13,5 Мбит/сек, 1920x1080
Аудио #1: Русский: AC3, 3/2 ch, ~448.00 kb/s |Многоголосый закадровый, Киномания|
Аудио #2: Русский: AC3, 3/2 ch, ~448.00 kb/s |Одноголосый закадровый, Ю.Сербин|
Аудио #3: Китайский: DTS, 3/2 ch, ~1536 kb/s

Знаете ли вы, что...

• Первоначально роль, исполненную Тони Люн Чу Ваем, должен был исполнять Чоу Юн-Фат.
• Фильм основан на событиях, описанных в одном из четырех классических китайский романов, считающихся столпами китайской литературы, — «Троецарствия» Ло Гуаньчжуна.

MediaInfo

Формат : Matroska
Версия формата : Version 2
Размер файла : 16,4 Гбайт
Продолжительность : 2 ч. 25 м.
Общий поток : 16,2 Мбит/сек
Дата кодирования : UTC 2009-10-02 09:50:12
Программа кодирования : mkvmerge v2.9.8 ('C'est le bon') built on Aug 13 2009 12:49:06
Библиотека кодирования : libebml v0.7.7 + libmatroska v0.8.1
Видео
Идентификатор : 1
Формат : AVC
Формат/Информация : Advanced Video Codec
Профиль формата : [email protected]
Параметр CABAC формата : Да
Параметр ReFrames формата : 4 кадра
Идентификатор кодека : V_MPEG4/ISO/AVC
Продолжительность : 2 ч. 25 м.
Битрейт : 13,5 Мбит/сек
Ширина : 1920 пикселей
Высота : 1080 пикселей
Соотношение сторон : 16:9
Режим частоты кадров : Постоянный
Частота кадров : 24,000 кадра/сек
Цветовое пространство : YUV
Субдискретизация насыщенности : 4:2:0
Битовая глубина : 8 бит
Тип развёртки : Прогрессивная
Бит/(Пиксели*Кадры) : 0.271
Размер потока : 13,7 Гбайт (83%)
Библиотека кодирования : x264 core 67 r1120M 8544346
Настройки программы : cabac=1 / ref=4 / deblock=1:-3:-3 / analyse=0x3:0x133 / me=umh / subme=9 / psy_rd=1.2:0.0 / mixed_ref=1 / me_range=24 / chroma_me=1 / trellis=2 / 8x8dct=1 / cqm=0 / deadzone=21,11 / chroma_qp_offset=-2 / threads=6 / nr=0 / decimate=1 / mbaff=0 / bframes=5 / b_pyramid=1 / b_adapt=2 / b_bias=0 / direct=1 / wpredb=1 / keyint=250 / keyint_min=25 / scenecut=40 / rc=crf / crf=20.5 / qcomp=0.60 / qpmin=10 / qpmax=51 / qpstep=4 / ip_ratio=1.40 / pb_ratio=1.30 / aq=1:0.80
Язык : English
Default : Да
Forced : Нет
Аудио #1
Идентификатор : 2
Формат : AC-3
Формат/Информация : Audio Coding 3
Расширение режима : CM (complete main)
Параметр Endianness формата : Big
Идентификатор кодека : A_AC3
Продолжительность : 2 ч. 25 м.
Вид битрейта : Постоянный
Битрейт : 448 Кбит/сек
Каналы : 6 каналов
Расположение каналов : Front: L C R, Side: L R, LFE
Частота : 48,0 КГц
Битовая глубина : 16 бит
Метод сжатия : С потерями
Размер потока : 466 Мбайт (3%)
Заголовок : Russian (MVO - "Kinomania")
Язык : Russian
Default : Да
Forced : Нет
Аудио #2
Идентификатор : 3
Формат : AC-3
Формат/Информация : Audio Coding 3
Расширение режима : CM (complete main)
Параметр Endianness формата : Big
Идентификатор кодека : A_AC3
Продолжительность : 2 ч. 25 м.
Вид битрейта : Постоянный
Битрейт : 448 Кбит/сек
Каналы : 6 каналов
Расположение каналов : Front: L C R, Side: L R, LFE
Частота : 48,0 КГц
Битовая глубина : 16 бит
Метод сжатия : С потерями
Размер потока : 466 Мбайт (3%)
Заголовок : Russian (AVO - Yu.Serbin)
Язык : Russian
Default : Нет
Forced : Нет
Аудио #3
Идентификатор : 4
Формат : DTS
Формат/Информация : Digital Theater Systems
Режим : 16
Параметр Endianness формата : Big
Идентификатор кодека : A_DTS
Продолжительность : 2 ч. 25 м.
Вид битрейта : Постоянный
Битрейт : 1509 Кбит/сек
Каналы : 6 каналов
Расположение каналов : Front: L C R, Side: L R, LFE
Частота : 48,0 КГц
Битовая глубина : 24 бит
Метод сжатия : С потерями
Размер потока : 1,53 Гбайт (9%)
Заголовок : Chinese
Язык : Chinese
Default : Нет
Forced : Нет
Текст #1
Идентификатор : 5
Формат : UTF-8
Идентификатор кодека : S_TEXT/UTF8
Идентификатор кодека/Информация : UTF-8 Plain Text
Язык : Russian
Default : Нет
Forced : Нет
Текст #2
Идентификатор : 6
Формат : UTF-8
Идентификатор кодека : S_TEXT/UTF8
Идентификатор кодека/Информация : UTF-8 Plain Text
Язык : English
Default : Нет
Forced : Нет
Скриншоты:
--Битва у Красной скалы 2 / Red Cliff: Part II / Chi bi xia: Jue zhan tian xia (2009) BDRip [1080p]- Русское название: Битва у Красной скалы 2
Оригинальное название: Chi bi xia: Jue zhan tian xia
Год выпуска: 2009
Произвоство: Китай
Жанр: боевик, драма, приключения, военный, история
Перевод: Многоголосый закадровый, |Киномания|, Одноголосый закадровый, |Ю.Сербин|
Язык субтитров: Русский, английский
Вид субтитров: Вшитые, отключаемые
Описание фильма:
Война между Цао Цао (Фэнъи Чжан) и альянсом южан в самом разгаре - последние выиграли одну битву, но впереди решающее сражение, которое, скорее всего, будет разворачиваться на воде. В войсках Цао Цао свирепствует тиф, но бессердечный узурпатор перенаправляет болезнь в стан врагов, после чего альянс разваливается - Лю Бэй (Юн Ю) уводит своих людей, оставляя Чжоу Юя (Тони Люн Чу Вай) без военной поддержки...
Режиссер: Джон Ву
Актеры: Тони Люн Чу Вай, Такеши Канеширо, Фэнъи Чжан, Чжэнь Чжан, Чжао Вэй, Джан Ху, Чи-Линг Лин, Шидо Накамура, Юн Ю, Ба Сэнь Чжа Бу
-Продолжительность: 02:21:18
Качество видео: BDRip
Контейнер: MKV
Видеокодек: MPEG-4 AVC/H.264
Видео: 1920x816 (2:35:1) at 24.000 fps, x264, ~9034 kb/s
Аудио #1: Русский: AC3, 3/2 ch, ~448.00 kb/s |Многоголосый закадровый, Киномания|
Аудио #2: Русский: AC3, 3/2 ch, ~448.00 kb/s |Одноголосый закадровый, Ю.Сербин|
Аудио #3: Китайский: DTS, 3/2 ch, ~1536 kb/s

Знаете ли вы, что...

Во время съемок корабельного сражения произошла трагедия: огонь слишком быстро распространился по лодке, и в результате пожара шесть человек получили ожоги, а каскадер Лю Янкинг погиб. Впоследствии фильм был посвящен его памяти.

MediaInfo

Формат : Matroska
Версия формата : Version 2
Размер файла : 11,5 Гбайт
Продолжительность : 2 ч. 21 м.
Общий поток : 11,7 Мбит/сек
Название фильма : Red Cliff II / Chi bi xia: Jue zhan tian xia (2009) - Release for HDClub by AnryV
Дата кодирования : UTC 2009-10-07 23:33:23
Программа кодирования : mkvmerge v2.9.0 ('Moanin'') built on May 22 2009 17:46:31
Библиотека кодирования : libebml v0.7.7 + libmatroska v0.8.1
Видео
Идентификатор : 1
Формат : AVC
Формат/Информация : Advanced Video Codec
Профиль формата : [email protected]
Параметр CABAC формата : Да
Параметр ReFrames формата : 5 кадров
Идентификатор кодека : V_MPEG4/ISO/AVC
Продолжительность : 2 ч. 21 м.
Битрейт : 9034 Кбит/сек
Ширина : 1920 пикселей
Высота : 816 пикселей
Соотношение сторон : 2,35:1
Режим частоты кадров : Постоянный
Частота кадров : 24,000 кадра/сек
Цветовое пространство : YUV
Субдискретизация насыщенности : 4:2:0
Битовая глубина : 8 бит
Тип развёртки : Прогрессивная
Бит/(Пиксели*Кадры) : 0.240
Размер потока : 8,92 Гбайт (77%)
Библиотека кодирования : x264 core 67 r1130M 8475977
Настройки программы : cabac=1 / ref=5 / deblock=1:-3:-3 / analyse=0x3:0x133 / me=umh / subme=9 / psy_rd=1.0:0.0 / mixed_ref=1 / me_range=24 / chroma_me=1 / trellis=2 / 8x8dct=1 / cqm=0 / deadzone=21,11 / chroma_qp_offset=-2 / threads=6 / nr=100 / decimate=1 / mbaff=0 / bframes=5 / b_pyramid=1 / b_adapt=2 / b_bias=0 / direct=1 / wpredb=1 / keyint=250 / keyint_min=25 / scenecut=40 / rc=crf / crf=19.5 / qcomp=0.60 / qpmin=10 / qpmax=51 / qpstep=4 / ip_ratio=1.40 / pb_ratio=1.30 / aq=1:0.80
Язык : English
Default : Да
Forced : Нет
Аудио #1
Идентификатор : 2
Формат : AC-3
Формат/Информация : Audio Coding 3
Расширение режима : CM (complete main)
Параметр Endianness формата : Big
Идентификатор кодека : A_AC3
Продолжительность : 2 ч. 21 м.
Вид битрейта : Постоянный
Битрейт : 448 Кбит/сек
Каналы : 6 каналов
Расположение каналов : Front: L C R, Side: L R, LFE
Частота : 48,0 КГц
Битовая глубина : 16 бит
Метод сжатия : С потерями
Размер потока : 453 Мбайт (4%)
Заголовок : AC3 5.1 448 Kbps Многоголосый закадровый - Киномания
Язык : Russian
Default : Да
Forced : Нет
Аудио #2
Идентификатор : 3
Формат : AC-3
Формат/Информация : Audio Coding 3
Расширение режима : CM (complete main)
Параметр Endianness формата : Big
Идентификатор кодека : A_AC3
Продолжительность : 2 ч. 21 м.
Вид битрейта : Постоянный
Битрейт : 448 Кбит/сек
Каналы : 6 каналов
Расположение каналов : Front: L C R, Side: L R, LFE
Частота : 48,0 КГц
Битовая глубина : 16 бит
Метод сжатия : С потерями
Размер потока : 453 Мбайт (4%)
Заголовок : AC3 5.1 448 Kbps Одноголосый закадровый - Ю.Сербин
Язык : Russian
Default : Нет
Forced : Нет
Аудио #3
Идентификатор : 4
Формат : DTS
Формат/Информация : Digital Theater Systems
Режим : 16
Параметр Endianness формата : Big
Идентификатор кодека : A_DTS
Продолжительность : 2 ч. 21 м.
Вид битрейта : Постоянный
Битрейт : 1509 Кбит/сек
Каналы : 6 каналов
Расположение каналов : Front: L C R, Side: L R, LFE
Частота : 48,0 КГц
Битовая глубина : 24 бит
Метод сжатия : С потерями
Размер потока : 1,49 Гбайт (13%)
Язык : Chinese
Default : Нет
Forced : Нет
Текст #1
Идентификатор : 5
Формат : UTF-8
Идентификатор кодека : S_TEXT/UTF8
Идентификатор кодека/Информация : UTF-8 Plain Text
Язык : Russian
Default : Нет
Forced : Нет
Текст #2
Идентификатор : 6
Формат : UTF-8
Идентификатор кодека : S_TEXT/UTF8
Идентификатор кодека/Информация : UTF-8 Plain Text
Язык : English
Default : Нет
Forced : Нет
Скриншоты:
Время раздачи: 24/7 Круглосуточно (До первых 10 скачавших)

[Цитировать]



Показать сообщения:    

Текущее время: 06-Дек 15:06

Часовой пояс: UTC + 3


Вы не можете начинать темы
Вы не можете отвечать на сообщения
Вы не можете редактировать свои сообщения
Вы не можете удалять свои сообщения
Вы не можете голосовать в опросах
Вы не можете прикреплять файлы к сообщениям
Вы не можете скачивать файлы

!ВНИМАНИЕ!
Сайт не предоставляет электронные версии произведений, а занимается лишь коллекционированием и каталогизацией ссылок, присылаемых и публикуемых на форуме нашими читателями. Если вы являетесь правообладателем какого-либо представленного материала и не желаете, чтобы ссылка на него находилась в нашем каталоге, свяжитесь с нами, и мы незамедлительно удалим ее. Файлы для обмена на трекере предоставлены пользователями сайта, и администрация не несет ответственности за их содержание. Просьба не заливать файлы, защищенные авторскими правами, а также файлы нелегального содержания!