[ Сегодня идет свободное скачивание без начисления Download ]


Статистика раздачи
Нет
 
   
 
Top  
 
 
- Не пытайтесь повторить! / You Have Been Warned. Выпуск №3 (2013) SATRip - Режиссер / Телекомпания: Discovery
Русское название: Не пытайтесь повторить!
Оригинальное название: You Have Been Warned
Год выпуска: 2013
Жанр: Шокирующее шоу, юмор, расследование
Описание:
Программа «Не пытайтесь повторить» показывает 20 лучших роликов, выложенных на YouTube, на которых запечатлены научные эксперименты, поставленные в домашних условиях.
В каждой серии создатели программы демонстрируют умный, смешной или просто странный видеосюжет, а потом ведущие ученые разбирают его в деталях и объясняют суть.
Вместе с ними зрители совершат ряд открытий из области биологии, физики или химии, которые лежат в основе этих опытов. Вы увидите летательный аппарат, работающий на мускульной силе и созданный в Канаде, встретитесь с исследователями космоса из Великобритании, познакомитесь с девушками из США и Новой Зеландии, которые умеют говорить задом наперед, а также услышите рок-группу, где играют роботы!
Для этой программы было отобрано только самое лучшее - от экспериментов, которые люди ставят сами на себе, до головокружительных каскадерских трюков.
Режиссёр: Tom Heaney
В выпуске: "Короли разрушения"
20 лучших специалистов по хаосу с YouTube, включая создателей смертельных солнечных лучей и гениального стрелка из рогатки. А что чувствует человек, в которого стреляют из АК-47?
Перевод: Профессиональный одноголосый ("VSI"-Москва)
Текст читал: Гарет Корник
Продолжительность: ~ 00:43:41
Видеокодек: DivX
Битрейт видео: ~1500 kb/s
Размер кадра: 720 x 400, (16:9) 25.000 fps,
Качество видео: SATRip
Аудиокодек: MP3, 2ch. 128 kb/s
Битрейт аудио: 128 kb/s

MediaInfo

Формат : AVI
Формат/Информация : Audio Video Interleave
Размер файла : 511 Мбайт
Продолжительность : 43 м.
Общий поток : 1636 Кбит/сек
Библиотека кодирования : TMPGEnc 4.0 XPress Version. 4.7.7.307
Видео
Идентификатор : 0
Формат : MPEG-4 Visual
Параметр BVOP формата : 1
Параметр QPel формата : Нет
Параметр GMC формата : Без точки перехода
Параметр матрицы формата : Default (H.263)
Режим смешивания : Сжатый битовый поток
Идентификатор кодека : DX50
Идентификатор кодека/Подсказка : DivX 5
Продолжительность : 43 м.
Битрейт : 1500 Кбит/сек
Ширина : 720 пикселей
Высота : 400 пикселей
Соотношение сторон : 16:9
Частота кадров : 25,000 кадров/сек
Цветовое пространство : YUV
Субдискретизация насыщенности : 4:2:0
Битовая глубина : 8 бит
Тип развёртки : Прогрессивная
Метод сжатия : С потерями
Бит/(Пиксели*Кадры) : 0.208
Размер потока : 469 Мбайт (92%)
Библиотека кодирования : DivX 6.8.5 (UTC 2009-08-20)
Аудио
Идентификатор : 1
Формат : MPEG Audio
Версия формата : Version 1
Профиль формата : Layer 3
Режим : Joint stereo
Расширение режима : MS Stereo
Идентификатор кодека : 55
Идентификатор кодека/Подсказка : MP3
Продолжительность : 43 м.
Вид битрейта : Постоянный
Битрейт : 128 Кбит/сек
Каналы : 2 канала
Частота : 48,0 КГц
Метод сжатия : С потерями
Размер потока : 40,0 Мбайт (8%)
Выравнивание : Соединение по промежуткам
Продолжительность промежутка : 250 мс. (6,25 видеокадров)
Время предзагрузки промежутка : 192 мс.
Скриншоты:

[Цитировать]



Показать сообщения:    

Текущее время: 02-Дек 22:57

Часовой пояс: UTC + 3


Вы не можете начинать темы
Вы не можете отвечать на сообщения
Вы не можете редактировать свои сообщения
Вы не можете удалять свои сообщения
Вы не можете голосовать в опросах
Вы не можете прикреплять файлы к сообщениям
Вы не можете скачивать файлы

!ВНИМАНИЕ!
Сайт не предоставляет электронные версии произведений, а занимается лишь коллекционированием и каталогизацией ссылок, присылаемых и публикуемых на форуме нашими читателями. Если вы являетесь правообладателем какого-либо представленного материала и не желаете, чтобы ссылка на него находилась в нашем каталоге, свяжитесь с нами, и мы незамедлительно удалим ее. Файлы для обмена на трекере предоставлены пользователями сайта, и администрация не несет ответственности за их содержание. Просьба не заливать файлы, защищенные авторскими правами, а также файлы нелегального содержания!