[ Сегодня идет свободное скачивание без начисления Download ]


Статистика раздачи
Нет
 
   
 
Top  
 
 
-Нечто / The Thing (2011) BDRip - Русское название: Нечто
Оригинальное название: The Thing
Год выпуска: 2011
Страна: США, Канада
Слоган: «Величайшее открытие человечества может стать последним»
Жанр: Ужасы, фантастика, триллер, детектив--Режиссер: Маттис ван Хейниген мл.
Актеры: Мэри Элизабет Уинстэд (Kate Lloyd), Джоэл Эдгертон (Sam Carter), Ульрих Томсен (Dr. Sander Halvorson), Эрик Кристиан Олсен (Adam Finch), Адевале Акинойе-Агбаже (Derek Jameson), Пол Браунштейн (Griggs), Тронд Эспен Сейм (Edvard Wolner), Ким Баббс (Juliette), Ёрген Лангхелле (Lars), Ян Гуннар Рёйсе (Olav), Стиг Хенрик Хофф (Peder), Кристофер Хивджу (Jonas)
Дублёры: Ольга Иванова (Kate Lloyd), Радик Мухаметзянов (Sam Carter), Александр Гаврилин (Dr. Sander Halvorson), Илья Хвостиков (Adam Finch), Михаил Георгиу (Derek Jameson), Михаил Белякович (Griggs), Василий Дахненко (Edvard Wolner), Наталья Грачева (Juliette), Даниил Щебланов (Colin), Диомид Виноградов (Olav), Денис Беспалый (Peder), Александр Носков (Jonas)-Описание фильма: Научная экспедиция обнаруживает в Антарктике потерпевший крушение инопланетный космический корабль. Группа отчаянных учёных проникает в его недра и неожиданно для самих себя открывает ящик Пандоры. Среди непроходимых снегов и ледяных гор, выпущенное на свободу Нечто устраивает на исследовательской станции жуткую бойню.- -Продолжительность: 01:43:00
Перевод: Дублированный
Субтитры: отсутствуют--Качество видео: BDRip
Видеокодек: MPEG-4 AVC/H.264
Битрейт видео: ~ 5 623 kbps
Размер кадра: 1920x800
Аудиокодек: AC3 5.1
Битрейт аудио: 448 Кбит/с-

MediaInfo:

General
Unique ID : 199056614328696562562647041096239263922 (0x95C0E8CF83570224B8F3F6C79533B0B2)
Complete name : D:\The.Thing.2011.1080p.BDRip.mkv
Format : Matroska
Format version : Version 2
File size : 4.37 GiB
Duration : 1h 43mn
Overall bit rate : 6 071 Kbps
Encoded date : UTC 2011-11-30 23:57:48
Writing application : mkvmerge v4.0.0 ('The Stars were mine') сборка от Jun 6 2010 16:18:42
Writing library : libebml v1.0.0 + libmatroska v1.0.0
Video
ID : 1
Format : AVC
Format/Info : Advanced Video Codec
Format profile : High@L4.1
Format settings, CABAC : Yes
Format settings, ReFrames : 5 frames
Codec ID : V_MPEG4/ISO/AVC
Duration : 1h 43mn
Bit rate : 5 623 Kbps
Width : 1 920 pixels
Height : 800 pixels
Display aspect ratio : 2.40:1
Frame rate mode : Constant
Frame rate : 23.976 fps
Color space : YUV
Chroma subsampling : 4:2:0
Bit depth : 8 bits
Scan type : Progressive
Bits/(Pixel*Frame) : 0.153
Stream size : 3.96 GiB (91%)
Writing library : x264 core 119 r2106 07efeb4
Encoding settings : cabac=1 / ref=5 / deblock=1:-3:-3 / analyse=0x3:0x133 / me=umh / subme=10 / psy=1 / psy_rd=1.00:0.10 / mixed_ref=1 / me_range=32 / chroma_me=1 / trellis=2 / 8x8dct=1 / cqm=0 / deadzone=21,11 / fast_pskip=0 / chroma_qp_offset=-3 / threads=12 / sliced_threads=0 / nr=0 / decimate=0 / interlaced=0 / bluray_compat=0 / constrained_intra=0 / bframes=3 / b_pyramid=2 / b_adapt=2 / b_bias=0 / direct=3 / weightb=1 / open_gop=0 / weightp=2 / keyint=240 / keyint_min=24 / scenecut=40 / intra_refresh=0 / rc_lookahead=60 / rc=2pass / mbtree=1 / bitrate=5623 / ratetol=1.0 / qcomp=0.60 / qpmin=0 / qpmax=69 / qpstep=4 / cplxblur=20.0 / qblur=0.5 / ip_ratio=1.40 / aq=1:1.00
Language : English
Default : No
Forced : No
Audio
ID : 2
Format : AC-3
Format/Info : Audio Coding 3
Mode extension : CM (complete main)
Format settings, Endianness : Big
Codec ID : A_AC3
Duration : 1h 43mn
Bit rate mode : Constant
Bit rate : 448 Kbps
Channel(s) : 6 channels
Channel positions : Front: L C R, Side: L R, LFE
Sampling rate : 48.0 KHz
Bit depth : 16 bits
Compression mode : Lossy
Stream size : 330 MiB (7%)
Language : Russian
Default : No
Forced : No
Menu
00:00:00.000 : :Chapter 01
00:04:41.030 : :Chapter 02
00:07:48.468 : :Chapter 03
00:14:51.682 : :Chapter 04
00:26:05.313 : :Chapter 05
00:31:07.365 : :Chapter 06
00:36:52.084 : :Chapter 07
00:43:20.055 : :Chapter 08
00:48:37.289 : :Chapter 09
00:56:49.781 : :Chapter 10
01:05:04.609 : :Chapter 11
01:10:12.875 : :Chapter 12
01:14:25.002 : :Chapter 13
01:22:16.222 : :Chapter 14
01:35:06.158 : :Chapter 15
01:43:03.802 : :Chapter 16
-Скриншоты:
-Время раздачи: с 09:00 до 24:00

[Цитировать]



Показать сообщения:    

Текущее время: 11-Дек 03:21

Часовой пояс: UTC + 3


Вы не можете начинать темы
Вы не можете отвечать на сообщения
Вы не можете редактировать свои сообщения
Вы не можете удалять свои сообщения
Вы не можете голосовать в опросах
Вы не можете прикреплять файлы к сообщениям
Вы не можете скачивать файлы

!ВНИМАНИЕ!
Сайт не предоставляет электронные версии произведений, а занимается лишь коллекционированием и каталогизацией ссылок, присылаемых и публикуемых на форуме нашими читателями. Если вы являетесь правообладателем какого-либо представленного материала и не желаете, чтобы ссылка на него находилась в нашем каталоге, свяжитесь с нами, и мы незамедлительно удалим ее. Файлы для обмена на трекере предоставлены пользователями сайта, и администрация не несет ответственности за их содержание. Просьба не заливать файлы, защищенные авторскими правами, а также файлы нелегального содержания!