[ Сегодня идет свободное скачивание без начисления Download ]


Статистика раздачи
Нет
 
   
 
Top  
 
 
-Здравствуй, ночь / Buongiorno, notte (2003) DVDRip- Русское название: Здравствуй, ночь
Оригинальное название: Buongiorno, notte
Год выпуска: 2003
Жанр: Драма-Описание фильма:
Рим, 1978 год. Молодая женщина Кьяра вместе со своим другом переезжает на новую квартиру. Внешне ее жизнь кажется размеренным, рутинным существованием, но ее коллега Энцо начинает подозревать, что за спокойной уравновешенной видимостью таится нечто иное.-На самом деле, Кьяра скрывает, что является членом итальянской подпольной экстремистской террористической группировки «Красные бригады», которая планирует похитить бывшего премьер-министра и убить за его предполагаемые преступления. Мы видим события глазами Кьяры — она то чувствует себя потерянной, то испытывает страх, путая реальность и вымысел. Осуществление плана началось, но постепенно выясняется, что не так-то просто держать в плену крупного политика, когда страна погружена в кризис.
С каждым прошедшим днем нарастает напряженность среди группы террористов, которые оказываются в таком же плену, как и их жертва. Подозрения и сомнения Кьяры, страстно верящей в революционную утопию, растут, и она начинает ставить под вопрос свои взгляды и поступки…-Режиссер: Марко Беллоккьо
Актеры: Майя Санса, Луиджи Ло Кашио, Роберто Херлицка, Паоло Бригулья, Пьер Джорджо Беллоккьо, Джованни Калканьо, Джулио Бозетти, Джанни Скикки, Карло Костелли, Бруно Карьелло.
Продолжительность: 01:46:00
Перевод: Двуголосый закадровый

Дата мировой премьеры: 4 сентября 2003
Дата российской премьеры: 3 июня 2004
Дата выхода DVD релиза: 22 декабря 2005-Видеокодек: DivX 5
Битрейт видео: ~1524 Кбит/сек
Размер кадра: 640*352
Качество видео: DVDRip
Аудиокодек: AC3 6.0
Битрейт аудио: 384 Кбит/сек-

MediaInfo

Общее
Полное имя                               : D:\Раздача\Здравствуй_ночь[nnm-club].avi
Формат                                   : AVI
Формат/Информация                        : Audio Video Interleave
Размер файла                             : 1,37 Гбайт
Продолжительность                        : 1 ч. 42 м.
Общий поток                              : 1918 Кбит/сек
Программа кодирования                    : VirtualDubMod 1.5.10.2 (build 2540/release)
Библиотека кодирования                   : VirtualDubMod build 2540/release
Видео
Идентификатор                            : 0
Формат                                   : MPEG-4 Visual
Параметр BVOP формата                    : Нет
Параметр QPel формата                    : Нет
Параметр GMC формата                     : Без точки перехода
Параметр матрицы формата                 : Default (H.263)
Идентификатор кодека                     : DX50
Идентификатор кодека/Подсказка           : DivX 5
Продолжительность                        : 1 ч. 42 м.
Битрейт                                  : 1524 Кбит/сек
Ширина                                   : 640 пикселей
Высота                                   : 352 пикселя
Соотношение сторон                       : 16:9
Частота кадров                           : 25,000 кадров/сек
Цветовое пространство                    : YUV
Субдискретизация насыщенности            : 4:2:0
Битовая глубина                          : 8 бит
Тип развёртки                            : Прогрессивная
Метод сжатия                             : С потерями
Бит/(Пиксели*Кадры)                      : 0.271
Размер потока                            : 1,09 Гбайт (79%)
Библиотека кодирования                   : DivX 5.2.1 (DrDivX 106) (UTC 2004-09-08)
Аудио
Идентификатор                            : 1
Формат                                   : AC-3
Формат/Информация                        : Audio Coding 3
Расширение режима                        : CM (complete main)
Параметр Endianness формата              : Big
Идентификатор кодека                     : 2000
Продолжительность                        : 1 ч. 42 м.
Вид битрейта                             : Постоянный
Битрейт                                  : 384 Кбит/сек
Каналы                                   : 6 каналов
Расположение каналов                     : Front: L C R, Side: L R, LFE
Частота                                  : 48,0 КГц
Битовая глубина                          : 16 бит
Метод сжатия                             : С потерями
Размер потока                            : 281 Мбайт (20%)
Выравнивание                             : Разделение по промежуткам
Продолжительность промежутка             : 40  мс. (1,00 видеокадр)
Время предзагрузки промежутка            : 500  мс.

Время раздачи: 24/7

[Цитировать]



Показать сообщения:    

Текущее время: 04-Дек 19:23

Часовой пояс: UTC + 3


Вы не можете начинать темы
Вы не можете отвечать на сообщения
Вы не можете редактировать свои сообщения
Вы не можете удалять свои сообщения
Вы не можете голосовать в опросах
Вы не можете прикреплять файлы к сообщениям
Вы не можете скачивать файлы

!ВНИМАНИЕ!
Сайт не предоставляет электронные версии произведений, а занимается лишь коллекционированием и каталогизацией ссылок, присылаемых и публикуемых на форуме нашими читателями. Если вы являетесь правообладателем какого-либо представленного материала и не желаете, чтобы ссылка на него находилась в нашем каталоге, свяжитесь с нами, и мы незамедлительно удалим ее. Файлы для обмена на трекере предоставлены пользователями сайта, и администрация не несет ответственности за их содержание. Просьба не заливать файлы, защищенные авторскими правами, а также файлы нелегального содержания!