[ Сегодня идет свободное скачивание без начисления Download ]


Статистика раздачи
Нет
 
   
 
Top  
 
 
-Большая игра / State of Play (2009) BDRemux-«Find The Truth»- Русское название: Большая игра
Оригинальное название: State of Play
Год выпуска: 2009
Жанр: Драма, Детектив
Описание фильма:
Американский журналист Маккэффри расследует серию жестоких убийств. Одной из жертв становится любовница преуспевающего конгрессмена Коллинза, давнего друга Маккэффри. Улики открывают перед журналистом цепочку чудовищных заговоров, ведущих в высшие политические круги страны. Люди, с которыми ему придется иметь дело, ворочают миллиардами долларов и не привыкли, когда в их дела вмешиваются посторонние.
Режиссер: Кевин МакДональд
Актеры: Расселл Кроу, Бен Аффлек, Рэйчел МакАдамс, Хелен Миррен, Робин Райт, Джейсон Бейтмен, Джефф Дэниелс, Гарри Дж. Ленникс, Джош Мостел
Продолжительность: 02:07:01
Перевод: Дублированный [BD CEE], Двухголосый, профессиональный закадровый
Язык субтитров: Русский (надписи и пр.), Русский (полные), Английский (полные), Английский (комментарий)
Вид субтитров: Вшитые, отключаемые
-Видеокодек: VC-1
Битрейт видео: ~22491 kbps
Размер кадра: 1920 x 1080
Качество видео: BDRemux 1080p
Аудио 1: Русский, DTS 5.1, 768 kbps, 48 kHz (Дубляж)
Аудио 2: Русский, AC3 5.1, 448 kbps, 48 kHz (DVO)
Аудио 3: Английский, DTS-HD MA 5.1, 3604 kbps, 48 kHz (Оригинал)
Аудио 4: Английский, AC3 2.0, 192 kbps, 48 kHz (Commentary)-Сэмпл: Ссылка-

Знаете ли вы, что...

? Фильм должен был воссоединить главных актеров «Бойцовского клуба» Эдварда Нортона и Брэда Питта. Однако Питт покинул проекта из-за забастовки сценаристов, он был заменен Расселом Кроу. Уход Питта задержал старт съемок и участие Эдварда Нортона в картине стало невозможным, так как начиналась работа над лентой «Листья травы». Место Нортона занял Бен Аффлек.
? На ранних стадиях разработки режиссером фильма значился Эдвард Цвик.
? После ухода Питта и до того, как в проект попал Рассел Кроу, на роль Кэла МакАфри рассматривались Джонни Депп, Николас Кейдж и Том Хэнкс.
? Сцены в больнице в конце фильма были сняты в штабе Департамента жилищного строительства и городского развития США.
? Режиссерами «Большой игры» могли стать Брайан Де Пальма, Мартин Кэмпбелл, Энг Ли, Ричард Линклейтер и Джим Джармуш.
? Рассел Кроу перед тем как подписать контракт, показал сценарий Ридли Скотту, чтобы вместе с ним решить, стоит ли ему сниматься в этом фильме.
? Все сцены с Хелен Миррен были отсняты за 4 дня.
? На стене в кабинете МакАфри можно заметить фотографию настоящих репортеров Washington Post Боба Вудворда и Карла Бернстина, сыгравших главную роль в освещении знаменитого уотергейтского скандала.
? В начальных сценах фильма звучит песня «The Night That Paddy Murphy Dies» группы Great Big Sea. Вокалист Great Big Sea Алан Дойл и Рассел Кроу являются хорошими друзьями.
-

MediaInfo:

Общее
Уникальный идентификатор : 239877483136542452480537187350904319865 (0xB476B907D3E3C08D8C171CE2787C2F79)
Полное имя : D:\Films\State_of_Play.2009.1080p.BDRemux.mkv
Формат : Matroska
Версия формата : Version 2
Размер файла : 24,4 Гбайт
Продолжительность : 2 ч. 7 м.
Режим общего битрейта : Переменный
Общий поток : 27,5 Мбит/сек
Название фильма : State of Play
Дата кодирования : UTC 2013-03-18 06:22:01
Программа кодирования : mkvmerge v5.2.0 ('I can't explain') built on Dec 18 2011 18:12:03
Библиотека кодирования : libebml v1.2.3 + libmatroska v1.3.0
Видео
Идентификатор : 1
Формат : VC-1
Профиль формата : [email protected]
Идентификатор кодека : V_MS/VFW/FOURCC / WVC1
Идентификатор кодека/Подсказка : Microsoft
Продолжительность : 2 ч. 7 м.
Ширина : 1920 пикселей
Высота : 1080 пикселей
Соотношение сторон : 16:9
Режим частоты кадров : Постоянный
Частота кадров : 23,976 кадра/сек
Субдискретизация насыщенности : 4:2:0
Битовая глубина : 8 бит
Тип развёртки : Прогрессивная
Метод сжатия : С потерями
Язык : English
Default : Да
Forced : Нет
Аудио #1
Идентификатор : 2
Формат : DTS
Формат/Информация : Digital Theater Systems
Режим : 16
Параметр Endianness формата : Big
Идентификатор кодека : A_DTS
Продолжительность : 2 ч. 7 м.
Вид битрейта : Постоянный
Битрейт : 768 Кбит/сек
Каналы : 6 каналов
Расположение каналов : Front: L C R, Side: L R, LFE
Частота : 48,0 КГц
Битовая глубина : 24 бит
Метод сжатия : С потерями
Размер потока : 698 Мбайт (3%)
Заголовок : DUB BD CEE
Язык : Russian
Default : Да
Forced : Нет
Аудио #2
Идентификатор : 3
Формат : AC-3
Формат/Информация : Audio Coding 3
Расширение режима : CM (complete main)
Параметр Endianness формата : Big
Идентификатор кодека : A_AC3
Продолжительность : 2 ч. 7 м.
Вид битрейта : Постоянный
Битрейт : 448 Кбит/сек
Каналы : 6 каналов
Расположение каналов : Front: L C R, Side: L R, LFE
Частота : 48,0 КГц
Битовая глубина : 16 бит
Метод сжатия : С потерями
Размер потока : 407 Мбайт (2%)
Заголовок : DVO
Язык : Russian
Default : Нет
Forced : Нет
Аудио #3
Идентификатор : 4
Формат : DTS
Формат/Информация : Digital Theater Systems
Профиль формата : MA / Core
Режим : 16
Параметр Endianness формата : Big
Идентификатор кодека : A_DTS
Продолжительность : 2 ч. 7 м.
Вид битрейта : Переменный
Битрейт : Неизвестно / 1509 Кбит/сек
Каналы : 6 каналов
Расположение каналов : Front: L C R, Side: L R, LFE
Частота : 48,0 КГц
Битовая глубина : 24 бит
Метод сжатия : Без потерь / Lossy
Заголовок : Lossless
Язык : English
Default : Нет
Forced : Нет
Аудио #4
Идентификатор : 5
Формат : AC-3
Формат/Информация : Audio Coding 3
Расширение режима : CM (complete main)
Параметр Endianness формата : Big
Идентификатор кодека : A_AC3
Продолжительность : 2 ч. 7 м.
Вид битрейта : Постоянный
Битрейт : 192 Кбит/сек
Каналы : 2 канала
Расположение каналов : Front: L R
Частота : 48,0 КГц
Битовая глубина : 16 бит
Метод сжатия : С потерями
Размер потока : 175 Мбайт (1%)
Заголовок : Commentary
Язык : English
Default : Нет
Forced : Нет
Текст #1
Идентификатор : 6
Формат : UTF-8
Идентификатор кодека : S_TEXT/UTF8
Идентификатор кодека/Информация : UTF-8 Plain Text
Заголовок : Forced
Язык : Russian
Default : Да
Forced : Нет
Текст #2
Идентификатор : 7
Формат : UTF-8
Идентификатор кодека : S_TEXT/UTF8
Идентификатор кодека/Информация : UTF-8 Plain Text
Заголовок : Full
Язык : Russian
Default : Нет
Forced : Нет
Текст #3
Идентификатор : 8
Формат : UTF-8
Идентификатор кодека : S_TEXT/UTF8
Идентификатор кодека/Информация : UTF-8 Plain Text
Заголовок : Full
Язык : English
Default : Нет
Forced : Нет
Текст #4
Идентификатор : 9
Формат : UTF-8
Идентификатор кодека : S_TEXT/UTF8
Идентификатор кодека/Информация : UTF-8 Plain Text
Заголовок : Commentary
Язык : English
Default : Нет
Forced : Нет
Меню
00:00:00.000 : en:Chapter 00
00:05:41.174 : en:Chapter 01
00:09:03.876 : en:Chapter 02
00:15:13.203 : en:Chapter 03
00:20:05.913 : en:Chapter 04
00:28:58.194 : en:Chapter 05
00:34:41.245 : en:Chapter 06
00:41:52.927 : en:Chapter 07
00:46:08.557 : en:Chapter 08
00:51:40.972 : en:Chapter 09
00:56:24.506 : en:Chapter 10
01:01:44.492 : en:Chapter 11
01:07:09.233 : en:Chapter 12
01:13:19.561 : en:Chapter 13
01:18:48.432 : en:Chapter 14
01:27:52.892 : en:Chapter 15
01:34:41.384 : en:Chapter 16
01:38:15.431 : en:Chapter 17
01:45:51.053 : en:Chapter 18
01:58:02.533 : en:Chapter 19
-Скриншоты:

[Цитировать]



Показать сообщения:    

Текущее время: 05-Дек 03:25

Часовой пояс: UTC + 3


Вы не можете начинать темы
Вы не можете отвечать на сообщения
Вы не можете редактировать свои сообщения
Вы не можете удалять свои сообщения
Вы не можете голосовать в опросах
Вы не можете прикреплять файлы к сообщениям
Вы не можете скачивать файлы

!ВНИМАНИЕ!
Сайт не предоставляет электронные версии произведений, а занимается лишь коллекционированием и каталогизацией ссылок, присылаемых и публикуемых на форуме нашими читателями. Если вы являетесь правообладателем какого-либо представленного материала и не желаете, чтобы ссылка на него находилась в нашем каталоге, свяжитесь с нами, и мы незамедлительно удалим ее. Файлы для обмена на трекере предоставлены пользователями сайта, и администрация не несет ответственности за их содержание. Просьба не заливать файлы, защищенные авторскими правами, а также файлы нелегального содержания!